<?xml version="1.0" standalone="no"?>
<!DOCTYPE svg PUBLIC "-//W3C//DTD SVG 1.1//EN" "http://www.w3.org/Graphics/SVG/1.1/DTD/svg11.dtd" >
<svg xmlns="http://www.w3.org/2000/svg">
<metadata></metadata>
<defs>
<font id="chunkfive_exregular" horiz-adv-x="1175" >
<font-face units-per-em="2048" ascent="1536" descent="-512" />
<missing-glyph horiz-adv-x="512" />
<glyph horiz-adv-x="0" />
<glyph unicode="&#xd;" horiz-adv-x="573" />
<glyph unicode=" "  horiz-adv-x="512" />
<glyph unicode="&#x09;" horiz-adv-x="512" />
<glyph unicode="&#xa0;" horiz-adv-x="512" />
<glyph unicode="!" horiz-adv-x="630" d="M57 209q0 39 15.5 78t46.5 69.5t74 50t98 19.5t99 -17.5t77 -47t50.5 -69.5t17.5 -83q0 -86 -66 -148.5t-178 -62.5q-49 0 -92 18.5t-75 47t-49.5 66.5t-17.5 79zM66 1042v390h489v-390l-109 -516h-270z" />
<glyph unicode="&#x22;" horiz-adv-x="1056" d="M74 1436h405l-73 -613h-256zM588 1436h405l-73 -613h-256z" />
<glyph unicode="#" horiz-adv-x="1165" d="M61 395v217h181l30 228h-153v217h180l51 370h240l-49 -370h164l51 370h239l-49 -370h152v-217h-180l-31 -228h153v-217h-180l-55 -395h-240l56 395h-166l-56 -395h-239l55 395h-154zM481 612h166l29 228h-166z" />
<glyph unicode="$" horiz-adv-x="1454" d="M51 0v516h381q0 -63 28.5 -103t68.5 -62.5t84 -31t77 -8.5q27 0 57.5 4t56 15.5t43 31t17.5 52.5q0 39 -58 64.5t-145.5 50t-189.5 56t-189 87t-145.5 140.5t-58.5 216q0 113 48 197t120.5 137t157.5 79.5t161 26.5h19v97h315v-195q29 -23 52.5 -49.5t41.5 -60.5l21 172 h352v-514h-371q0 57 -20.5 101t-56 74.5t-84 46t-101.5 15.5q-23 0 -47 -7t-46 -20.5t-35 -34t-13 -46.5q0 -53 60.5 -88t150.5 -66t194.5 -66.5t194.5 -89t150.5 -133.5t60.5 -201q0 -115 -46 -194.5t-118 -130.5t-162 -77t-178 -30v-104h-315v168q-49 27 -87 58.5 t-65 64.5l-22 -158h-359z" />
<glyph unicode="%" horiz-adv-x="2410" d="M96 1075q0 90 43 161t113 120t158 74.5t176 25.5q117 0 208 -30.5t153.5 -85t95 -128t32.5 -159.5q0 -90 -43 -161t-112.5 -120t-157.5 -74.5t-176 -25.5q-121 0 -212 30.5t-152.5 85t-93.5 128t-32 159.5zM436 1059q0 -57 48 -93t106 -36q55 0 100 39t45 100q0 15 -6 31 q0 23 -15.5 41t-38 30.5t-48 19.5t-45.5 7q-55 0 -100.5 -39t-45.5 -100zM662 6l763 1442h349l-764 -1442h-348zM1368 352q0 90 43 161t112.5 120t157.5 74.5t177 25.5q117 0 208 -30.5t153 -85t95 -128t33 -159.5q0 -90 -43 -161t-112.5 -120t-157.5 -74.5t-176 -25.5 q-121 0 -212.5 30.5t-152.5 85t-93 128t-32 159.5zM1708 336q0 -57 48 -93t106 -36q55 0 100 39t45 100q0 15 -6 31q0 23 -15.5 41t-38 30.5t-48 19.5t-46.5 7q-55 0 -100 -39t-45 -100z" />
<glyph unicode="&#x26;" horiz-adv-x="1503" d="M70 365q0 111 58 204t187 150q-78 49 -117.5 126t-39.5 175q0 80 32.5 145.5t92 113.5t143.5 73.5t186 25.5t184.5 -25.5t139.5 -70.5t88 -105.5t31 -127.5q0 -55 -13.5 -101.5t-44 -87.5t-83 -79t-128.5 -76l205 -205q23 35 47.5 91t40.5 105l283 -82q-25 -86 -71 -174 t-93 -149l289 -291h-471l-72 74q-78 -49 -187.5 -75t-213.5 -26q-102 0 -189.5 25t-150 74t-98 122.5t-35.5 170.5zM449 401q0 -68 43 -119t129 -51q76 0 133 33l-256 260q-49 -49 -49 -123zM526 1040q0 -35 10.5 -56t28.5 -44l43 -51q29 18 56.5 59t27.5 92q0 43 -21.5 70 t-56.5 27q-49 0 -68.5 -31t-19.5 -66z" />
<glyph unicode="'" horiz-adv-x="559" d="M74 1436h405l-73 -613h-256z" />
<glyph unicode="(" horiz-adv-x="794" d="M51 639q0 180 51.5 344t126 297t157.5 233.5t146 155.5l211 -217q-37 -45 -91 -115.5t-103 -170t-85 -230.5t-36 -297q0 -172 33 -305t80 -236.5t102 -178.5t100 -128l-211 -219q-84 76 -168.5 186.5t-154.5 247.5t-114 297t-44 336z" />
<glyph unicode=")" horiz-adv-x="794" d="M51 -211q45 53 100.5 128t102.5 178.5t80 236.5t33 305q0 166 -36 297t-85 230.5t-103.5 170t-91.5 115.5l211 217q63 -55 146.5 -155.5t158 -233.5t125.5 -297t51 -344q0 -176 -44 -336t-113.5 -297t-155.5 -247.5t-168 -186.5z" />
<glyph unicode="*" horiz-adv-x="1040" d="M47 1036l82 246l254 -96v268h266v-268l254 82l76 -246l-254 -78l162 -227l-217 -156l-164 223l-160 -209l-209 158l170 211z" />
<glyph unicode="+" horiz-adv-x="1478" d="M74 537v323h477v479h334v-479h477v-323h-477v-488h-334v488h-477z" />
<glyph unicode="," horiz-adv-x="557" d="M-12 -264q49 61 86 121.5t61.5 128t37.5 144.5t13 169q0 25 -1 50.5t-3 51.5l373 -98v-24q0 -193 -89 -367t-243 -309z" />
<glyph unicode="-" horiz-adv-x="790" d="M96 352v273h594v-273h-594z" />
<glyph unicode="." horiz-adv-x="528" d="M31 213q0 39 15 81t44 75.5t73 55t99 21.5t99.5 -21.5t75 -55t46 -75.5t15.5 -81q0 -92 -59.5 -156.5t-176.5 -64.5q-51 0 -93 19.5t-72.5 50t-48 70.5t-17.5 81z" />
<glyph unicode="/" horiz-adv-x="1161" d="M4 -113l850 1649h240l-850 -1649h-240z" />
<glyph unicode="0" horiz-adv-x="1226" d="M31 723q0 162 42 298t118.5 232.5t183 150.5t233.5 54q150 0 261.5 -53t183 -151.5t107.5 -236.5t36 -308t-38 -306.5t-111.5 -231.5t-181.5 -145.5t-247 -50.5q-129 0 -236.5 46.5t-185 139.5t-121.5 233.5t-44 328.5zM436 723q0 -98 17.5 -178t43 -136.5t58 -86 t63.5 -29.5q35 0 66 29.5t53.5 84t34.5 131t12 171.5q0 92 -14 168.5t-38.5 133t-57.5 87t-70 30.5q-29 0 -58.5 -28.5t-54 -80.5t-40 -128t-15.5 -168z" />
<glyph unicode="1" horiz-adv-x="1015" d="M51 1163q43 20 84 41t83 48.5t89 69.5t103 110h364v-1160h191v-272h-820v272h205v760l-205 -96z" />
<glyph unicode="2" horiz-adv-x="1208" d="M51 0v297q43 70 76 118t66.5 86t70.5 71.5t86 72.5q55 49 118.5 90t118 81t90.5 82t36 89q0 78 -50.5 106.5t-121.5 28.5q-41 0 -77 -15t-67.5 -37.5t-58.5 -50.5t-49 -52l-221 233q109 125 243.5 189.5t288.5 64.5q102 0 191.5 -30.5t155 -89t103 -141.5t37.5 -187 q0 -88 -20 -151.5t-61 -114t-102.5 -95.5t-143.5 -98q-37 -25 -83 -58.5t-90 -71.5t-80 -76t-54 -69h360v164h344v-436h-1106z" />
<glyph unicode="3" horiz-adv-x="1105" d="M31 205l209 217q57 -57 119.5 -95t150.5 -38q86 0 135 40t49 117q0 84 -46 117t-124 33h-153v244h149q74 0 124 35.5t50 105.5q0 41 -16 71.5t-42 50t-57.5 30t-64.5 10.5q-59 0 -122.5 -33t-117.5 -90l-198 240q27 31 73 64.5t104 62t124.5 48t136.5 19.5 q125 0 222.5 -30.5t164 -88t101 -137.5t34.5 -178q0 -53 -16 -94t-40 -73t-49.5 -55.5t-45.5 -37.5q25 -18 57.5 -47t62 -70t50 -95t20.5 -124q0 -115 -50 -199t-130 -140t-181.5 -84t-205.5 -28q-74 0 -145.5 19.5t-136 51.5t-115 74t-80.5 87z" />
<glyph unicode="4" horiz-adv-x="1196" d="M20 403v293l590 736h424v-807h109v-222h-109v-133h111v-270h-664v270h129v133h-590zM307 625h303v379z" />
<glyph unicode="5" horiz-adv-x="1181" d="M31 221l223 232q59 -61 128 -106.5t159 -45.5q104 0 164.5 57.5t60.5 147.5q0 41 -16.5 76.5t-44 63.5t-66.5 43.5t-82 15.5q-72 0 -116 -30t-76 -65l-263 117l125 705h811v-306h-551l-34 -198q31 20 88 34.5t133 14.5q90 0 176 -31t152.5 -92t107.5 -152.5t41 -209.5 q0 -129 -54.5 -226.5t-141.5 -162t-196 -97.5t-220 -33q-78 0 -155 20.5t-145.5 55.5t-123 80t-84.5 92z" />
<glyph unicode="6" horiz-adv-x="1189" d="M33 653q0 70 8 156t32.5 175t67.5 173t110.5 150.5t165 106.5t230.5 40q51 0 115.5 -11t129 -32.5t124 -51.5t102.5 -67l-139 -266q-53 31 -129 67.5t-170 36.5q-57 0 -103.5 -22.5t-80 -61t-55 -89t-29.5 -105.5q43 43 121.5 73.5t166.5 30.5q94 0 178.5 -33.5 t146.5 -93t98 -144.5t36 -185q0 -104 -38 -198.5t-108.5 -165t-173 -112.5t-231.5 -42q-125 0 -230.5 46t-182 132t-119.5 211t-43 282zM416 545q0 -39 11 -81t34.5 -78t59.5 -59.5t85 -23.5q80 0 133.5 51.5t53.5 124.5q0 31 -9.5 63.5t-29 58.5t-51 43.5t-76.5 17.5 q-37 -2 -70 -14.5t-60.5 -30t-48 -38t-32.5 -34.5z" />
<glyph unicode="7" horiz-adv-x="1159" d="M31 1026v406h1108v-273l-551 -1159h-443l549 1159h-336v-133h-327z" />
<glyph unicode="8" horiz-adv-x="1144" d="M31 420q0 49 15 102t44 102.5t70 90.5t92 65q-78 47 -116 123t-38 150q0 86 33 159.5t95.5 128t153.5 85t206 30.5q119 0 210 -30.5t153.5 -85t94 -128t31.5 -159.5q0 -102 -52 -174t-120 -105q104 -51 157.5 -150.5t53.5 -203.5q0 -94 -38 -176t-108.5 -141.5 t-171 -94.5t-223.5 -35q-127 0 -228 35t-171 94.5t-106.5 141.5t-36.5 176zM385 432q0 -37 15.5 -67.5t41 -53t60.5 -35t73 -12.5q74 0 131.5 41t57.5 127q0 53 -27.5 88t-67.5 55.5t-85 28.5t-80 10q-47 -27 -83 -76t-36 -106zM434 1069q0 -43 22.5 -68.5t54.5 -40 t66.5 -20.5t59.5 -6q39 18 68.5 53t29.5 82q0 55 -46 92t-107 37q-59 0 -103.5 -39t-44.5 -90z" />
<glyph unicode="9" horiz-adv-x="1202" d="M31 936q0 104 37.5 198.5t108.5 165t173.5 112.5t231.5 42q127 0 234.5 -47t186 -134t122.5 -213t44 -286q0 -78 -10 -166t-35.5 -176t-69.5 -170t-114 -144.5t-168 -99t-229 -36.5q-53 0 -117 11t-128.5 31.5t-123.5 51t-102 67.5l139 267q53 -31 129 -68t170 -37 q117 0 183.5 72t66.5 207q-43 -43 -111.5 -74t-159.5 -31q-96 0 -179 33t-145.5 93.5t-98 144.5t-35.5 186zM397 956q0 -31 8.5 -63.5t29 -58t51 -43t77.5 -17.5q37 2 66.5 14.5t53.5 30t42 36.5t31 36q0 39 -8.5 81t-29 77.5t-53 59.5t-81.5 24q-80 0 -133.5 -51.5 t-53.5 -125.5z" />
<glyph unicode=":" horiz-adv-x="520" d="M31 201q0 39 14 78.5t44 73.5t72 55.5t97 21.5t98 -21.5t73 -55.5t45 -73.5t15 -78.5q0 -45 -16 -85t-47 -69t-74 -46t-94 -17q-49 0 -91 18t-73 49t-47 70t-16 80zM31 823q0 39 14 79t44 74t72 55.5t97 21.5t98 -21.5t73 -55.5t45 -74t15 -79q0 -92 -60 -154.5 t-171 -62.5q-47 0 -89 18.5t-72.5 49.5t-48 69.5t-17.5 79.5z" />
<glyph unicode=";" horiz-adv-x="618" d="M10 -264q49 61 86 121.5t61.5 128t38 144.5t13.5 169q0 25 -1 50.5t-3 51.5l373 -98v-24q0 -193 -89.5 -367t-242.5 -309zM121 788q0 39 15.5 81t44 76t72.5 55.5t99 21.5t99.5 -21.5t75 -55.5t46 -76t15.5 -81q0 -92 -62.5 -156.5t-173.5 -64.5q-49 0 -91 19.5 t-72.5 50.5t-49 70.5t-18.5 80.5z" />
<glyph unicode="&#x3c;" horiz-adv-x="698" d="M41 526l365 490l258 -162l-248 -328l248 -325l-258 -166z" />
<glyph unicode="=" horiz-adv-x="1028" d="M90 352v273h844v-273h-844zM90 805v272h844v-272h-844z" />
<glyph unicode="&#x3e;" horiz-adv-x="698" d="M41 201l248 325l-248 328l258 162l365 -490l-365 -491z" />
<glyph unicode="?" horiz-adv-x="1064" d="M4 1200q109 125 244 194.5t289 69.5q102 0 191 -26.5t154.5 -79.5t103.5 -131t38 -183q0 -68 -24.5 -117.5t-60.5 -90.5t-78 -73t-77.5 -59.5t-60.5 -55t-25 -58.5v-113h-379l-2 164q0 70 50.5 127t112 105.5t112.5 90.5t51 85q0 29 -13.5 47t-35 29.5t-49 15.5t-53.5 4 q-33 0 -69 -14.5t-72 -39t-67.5 -54t-58.5 -60.5zM264 209q0 39 15.5 78t46 69.5t73.5 50t99 19.5q55 0 99 -17.5t77 -47t50 -69.5t17 -83q0 -86 -65.5 -148.5t-177.5 -62.5q-49 0 -92.5 18.5t-75 47t-49 66.5t-17.5 79z" />
<glyph unicode="@" horiz-adv-x="1902" d="M51 463q0 260 81 452.5t216 318.5t308 188.5t358 62.5q182 0 335.5 -48t265 -146.5t174 -248t62.5 -354.5q0 -188 -37.5 -317t-99 -211t-142.5 -118t-167 -36q-82 0 -133 23.5t-80 58.5t-40 77t-13 77q-16 -41 -42 -83t-65 -78t-93 -58.5t-128 -22.5q-55 0 -112.5 17.5 t-104.5 63.5t-77 126t-30 205q0 154 38 267.5t100.5 189t146.5 113.5t176 38q74 0 115 -24.5t63 -49.5l50 58h243l-90 -551q-6 -37 -6 -70q0 -53 20.5 -89t73.5 -36q55 0 86 91t31 319q0 133 -27.5 235.5t-89 173t-161 106.5t-242.5 36q-150 0 -268.5 -53.5t-202.5 -153 t-129 -238.5t-45 -311q0 -182 44 -304t117.5 -196t168 -105.5t192.5 -31.5q158 0 276.5 20.5t202.5 44.5v-266q-78 -23 -195.5 -44t-283.5 -21q-147 0 -298 41t-270.5 143t-195.5 276.5t-76 442.5zM813 416q0 -106 12.5 -143t51.5 -37q25 0 46 20t39.5 51t34 69t25.5 75 l51 313q-14 6 -37.5 16.5t-54.5 10.5q-43 0 -75 -37t-52 -92.5t-30.5 -122t-10.5 -123.5z" />
<glyph unicode="A" horiz-adv-x="1685" d="M31 0v268h139l276 899h-84v265h787l362 -1164h144v-268h-821v268h194l-43 140h-420l-43 -140h160v-268h-651zM641 653h268l-135 443z" />
<glyph unicode="B" horiz-adv-x="1406" d="M51 0v266h119v901h-119v265h764q256 0 379 -91.5t123 -259.5q0 -66 -10.5 -113.5t-33 -85.5t-61 -67t-96.5 -51q55 -16 104.5 -44t86 -71t58 -101.5t21.5 -131.5q0 -217 -130 -316.5t-427 -99.5h-778zM594 266h164q66 0 116 46t50 130q0 78 -43 129.5t-129 51.5h-158 v-357zM594 854h125q82 0 110.5 42t28.5 116q0 72 -38 110.5t-97 38.5h-129v-307z" />
<glyph unicode="C" horiz-adv-x="1404" d="M31 702q0 176 59.5 316.5t151.5 238t201.5 148.5t209.5 51q76 0 132.5 -18.5t95.5 -42t60.5 -47t27.5 -31.5l47 115h321v-582h-366q-2 49 -16.5 96t-40 83t-65.5 57.5t-95 21.5t-100.5 -32t-77 -87t-49 -129t-17.5 -158q0 -76 19.5 -145.5t57.5 -122.5t93 -85t129 -32 q63 0 120.5 29t100.5 64.5t70.5 67.5t34.5 40l239 -262q-53 -57 -118.5 -109.5t-143.5 -92.5t-168 -63.5t-190 -23.5q-164 0 -297 50.5t-227.5 145.5t-146.5 231t-52 308z" />
<glyph unicode="D" horiz-adv-x="1474" d="M51 0v272h127v889h-127v271h625q186 0 330.5 -54.5t244 -147.5t151.5 -220t52 -275q0 -352 -202.5 -543.5t-583.5 -191.5h-617zM598 272h78q82 0 140 37t95 99.5t54.5 146.5t17.5 180q0 82 -17.5 159t-54.5 136.5t-95 95t-140 35.5h-78v-889z" />
<glyph unicode="E" horiz-adv-x="1337" d="M51 0v272h129v889h-129v271h1235v-453h-354v182h-328v-282h389v-273h-389v-334h328v191h354v-463h-1235z" />
<glyph unicode="F" horiz-adv-x="1306" d="M51 0v272h127v889h-127v271h1225v-453h-363v182h-309v-356h389v-273h-389v-260h209v-272h-762z" />
<glyph unicode="G" horiz-adv-x="1589" d="M31 702q0 168 53 306.5t141 238t201 154.5t233 55q111 0 182.5 -22.5t115.5 -51t67 -57.5t35 -41l43 148h305v-605h-367q-2 61 -21.5 110.5t-52 82.5t-73.5 50t-86 17q-61 0 -113.5 -31.5t-89.5 -83.5t-57.5 -123t-20.5 -147q0 -78 18.5 -146.5t54.5 -119.5t88 -80.5 t120 -29.5q88 0 131 29.5t66 70.5v86h-125v219h680v-219h-82v-512h-410l-63 129q-35 -57 -123 -102t-207 -45q-135 0 -252 50t-204 144t-137 227.5t-50 298.5z" />
<glyph unicode="H" horiz-adv-x="1572" d="M51 0v270h113v891h-113v271h664v-271h-127v-309h389v309h-121v271h666v-271h-119v-891h119v-270h-666v270h121v310h-389v-310h127v-270h-664z" />
<glyph unicode="I" horiz-adv-x="782" d="M51 0v272h129v889h-129v271h680v-271h-127v-889h127v-272h-680z" />
<glyph unicode="J" horiz-adv-x="948" d="M41 -125q39 -18 92 -18q76 0 123 65.5t47 229.5v1011h-176v269h770v-269h-170v-1011q0 -135 -30.5 -242t-99.5 -179.5t-179.5 -110.5t-267.5 -38q-29 0 -56.5 6t-50.5 17z" />
<glyph unicode="K" horiz-adv-x="1669" d="M51 0v266h111v901h-111v265h645v-265h-110v-333l381 333h-148v265h682v-265h-119l-297 -256l414 -645h119v-266h-799v266h139l-221 348l-151 -129v-219h110v-266h-645z" />
<glyph unicode="L" horiz-adv-x="1249" d="M51 0v272h113v889h-113v271h647v-271h-108v-889h264v260h344v-532h-1147z" />
<glyph unicode="M" horiz-adv-x="2064" d="M51 0v264h111v903h-109v265h776l207 -766l197 766h780v-265h-112v-901h112v-266h-647v266h117v805h-10q-6 -35 -14.5 -76t-16.5 -78.5t-16.5 -69.5t-12.5 -50l-215 -797h-428l-229 817q-4 12 -10.5 40t-12.5 62.5t-12 73.5t-8 78h-9v-807h117v-264h-555z" />
<glyph unicode="N" horiz-adv-x="1671" d="M51 0v264h121v903h-119v265h588l504 -752v487h-141v265h616v-265h-135v-1167h-441l-522 780v-516h158v-264h-629z" />
<glyph unicode="O" horiz-adv-x="1515" d="M31 723q0 166 52 303t147.5 236.5t227.5 153.5t292 54q188 0 326 -54t229.5 -153.5t135.5 -240.5t44 -313q0 -174 -47 -312.5t-139.5 -234.5t-226.5 -147.5t-308 -51.5q-160 0 -295 47t-232.5 141.5t-151.5 236.5t-54 335zM537 723q0 -100 17 -181t47 -138.5t72 -88 t91 -30.5t87 30.5t65.5 86t42 133t14.5 174.5q0 94 -13.5 175t-41 141t-70.5 95t-103 35q-47 0 -84.5 -31.5t-65.5 -89t-43 -137.5t-15 -174z" />
<glyph unicode="P" horiz-adv-x="1310" d="M51 0v270h115v893h-115v269h664q178 0 288.5 -36t172 -96.5t83 -139.5t21.5 -167q0 -102 -43 -178t-116.5 -126t-171 -75.5t-208.5 -25.5h-155v-318h125v-270h-660zM586 809h92q90 0 145.5 44t55.5 126q0 92 -50.5 139t-140.5 47h-102v-356z" />
<glyph unicode="Q" horiz-adv-x="1546" d="M31 725q0 156 49 287t140 226t218 147.5t281 52.5q180 0 312 -52.5t218 -147.5t128 -229.5t42 -297.5q0 -326 -170 -512q12 -47 31.5 -90t58.5 -43q27 0 34 32.5t7 59.5v59h136v-104q0 -68 -19.5 -128.5t-57.5 -104.5t-96.5 -69.5t-134.5 -25.5q-63 0 -114.5 18.5t-90 50 t-67.5 72.5t-45 86q-74 -12 -160 -12q-156 0 -285 45t-221 136t-143 226.5t-51 317.5zM481 725q0 -66 8 -113q35 37 92.5 68t149.5 31q66 0 123 -22.5t107 -57.5q2 18 3 37.5t1 42.5q0 88 -17.5 166.5t-50.5 136t-79 91.5t-103 34q-47 0 -89 -32t-74 -87t-51.5 -131 t-19.5 -164zM594 375q61 -68 137 -68q57 0 109 45q-10 78 -33 125t-76 47q-51 0 -83 -44t-54 -105z" />
<glyph unicode="R" horiz-adv-x="1509" d="M51 0v270h115v893h-115v269h666q178 0 288.5 -33t173 -90.5t84 -134t21.5 -164.5q0 -59 -22.5 -110.5t-62.5 -89.5t-94 -63.5t-118 -33.5q53 -8 101.5 -34t85 -65t59 -88t22.5 -104q0 -66 10.5 -102.5t39.5 -36.5q47 0 47 65v68h137v-113q0 -63 -14.5 -122.5t-49 -104.5 t-92 -73t-143.5 -28q-203 0 -300 100.5t-97 280.5q0 70 -6.5 115t-28 70.5t-62.5 36t-108 10.5v-318h125v-270h-662zM588 817h92q90 0 143.5 42t53.5 124q0 92 -48.5 137t-138.5 45h-102v-348z" />
<glyph unicode="S" horiz-adv-x="1454" d="M51 0v516h381q0 -63 28.5 -103t68.5 -62.5t84 -31t77 -8.5q27 0 57.5 4t56 15.5t43 31t17.5 52.5q0 39 -58 64.5t-145.5 50t-189.5 56t-189 87t-145.5 140.5t-58.5 216q0 113 48 197t120.5 137t157.5 79.5t161 26.5q63 0 127 -11t121 -35.5t103.5 -64.5t76.5 -97l21 172 h352v-514h-371q0 57 -20.5 101t-56 74.5t-84 46t-101.5 15.5q-23 0 -47 -7t-46 -20.5t-35 -34t-13 -46.5q0 -53 60.5 -88t150.5 -66t194.5 -66.5t194.5 -89t150.5 -133.5t60.5 -201t-50 -202.5t-129 -134t-175.5 -75t-188.5 -22.5q-78 0 -143.5 16.5t-118.5 43t-95 60.5 t-71 69l-22 -158h-359z" />
<glyph unicode="T" horiz-adv-x="1435" d="M31 899v533h1374v-533h-301v262h-172v-889h170v-272h-762v272h168v889h-176v-262h-301z" />
<glyph unicode="U" horiz-adv-x="1509" d="M31 1165v267h651v-265h-111v-442q0 -123 13.5 -201t40 -122t64.5 -60t87 -16q47 0 85 13t65.5 55t42 121t14.5 212v434h-111v271h607v-265h-111v-497q0 -365 -149.5 -535t-438.5 -170q-311 10 -473 177t-162 517v506h-114z" />
<glyph unicode="V" horiz-adv-x="1583" d="M-20 1165v267h755v-267h-112l174 -458q25 -76 42 -140.5t21 -107.5h10q4 43 22.5 112.5t51.5 147.5l186 446h-106v267h580v-267h-101l-491 -1165h-377l-543 1165h-112z" />
<glyph unicode="W" horiz-adv-x="2078" d="M-20 1165v267h675v-267h-118l53 -299q8 -37 18 -96t19.5 -119.5t16.5 -113t11 -74.5h11q2 20 12 75.5t24.5 127t31 151.5t32.5 154l102 461h426l129 -566q12 -49 21.5 -104t16.5 -108.5t13.5 -102.5t10.5 -88h10q2 35 9 88t16.5 109.5t18.5 108.5t17 85l70 311h-113v267 h586v-267h-112l-306 -1165h-485l-123 487q-6 27 -14 61t-14.5 68.5t-12.5 67.5t-10 57h-8q-4 -23 -9.5 -56.5t-12.5 -69t-14 -68.5t-13 -55l-125 -492h-475l-271 1165h-114z" />
<glyph unicode="X" horiz-adv-x="1710" d="M51 0v264h178l301 391l-370 510h-107v267h811v-267h-119l201 -272l209 272h-180v267h680v-267h-174l-310 -395l369 -504h119v-266h-817v266h116l-198 266l-211 -268h182v-264h-680z" />
<glyph unicode="Y" horiz-adv-x="1370" d="M-20 1169v263h700v-263h-107l119 -217q4 -14 13.5 -36.5t19.5 -47t18.5 -47t12.5 -35.5h8q2 14 11 37t20.5 47.5t23.5 49t21 43.5l112 206h-112v263h551v-263h-111l-379 -665v-238h115v-266h-656v266h117v242l-397 661h-100z" />
<glyph unicode="Z" horiz-adv-x="1462" d="M51 0v266l746 895h-387v-268h-347v539h1344v-273l-745 -889h378v262h365v-532h-1354z" />
<glyph unicode="[" horiz-adv-x="1474" d="M59 0v270h115v893h-115v271h664q178 0 288.5 -40t172 -105.5t83 -149.5t21.5 -172q0 -115 -61.5 -200t-159.5 -138l229 -363h119v-266h-393l-340 549h-88v-279h125v-270h-660zM594 809h92q90 0 145.5 44t55.5 126q0 92 -50.5 139t-140.5 47h-102v-356z" />
<glyph unicode="\" horiz-adv-x="1161" d="M4 1536h240l850 -1649h-240z" />
<glyph unicode="]" horiz-adv-x="1325" d="M61 0v266h84v1002h-84v268h474v-926l237 142h-147v272h573v-272h-158l-129 -76l285 -408h84v-268h-332l-344 489l-72 -49v-172h146v-268h-617z" />
<glyph unicode="^" horiz-adv-x="1363" d="M168 797l309 653h418l309 -653h-385l-133 333l-137 -333h-381z" />
<glyph unicode="_" horiz-adv-x="1024" d="M0 -154h1024v-102h-1024v102z" />
<glyph unicode="`" horiz-adv-x="1042" d="M-297 1436h406l159 -291h-256z" />
<glyph unicode="a" horiz-adv-x="1228" d="M31 303q0 86 33.5 155.5t92 119t136.5 76t164 26.5q45 0 80.5 -9t61.5 -21.5t41 -25t19 -16.5v72q0 70 -55 92.5t-139 22.5q-92 0 -169 -31t-136 -64l-86 238q31 18 78 43t105 48.5t125 38.5t138 15q92 0 190.5 -19.5t179.5 -67.5t133 -130t52 -204v-400h123v-262h-438 l-49 92q-29 -39 -65 -64.5t-73.5 -40t-74.5 -20.5t-64 -6q-74 0 -145.5 20.5t-129 61.5t-93 105.5t-35.5 154.5zM420 324q0 -43 30.5 -70t77.5 -27t82 22.5t49 45.5v78q-2 4 -9 13t-21.5 19.5t-36 18.5t-53.5 8q-61 0 -90 -30.5t-29 -77.5z" />
<glyph unicode="b" horiz-adv-x="1343" d="M63 0v266h87v1002h-87v268h496v-592q16 20 46 37.5t67 31t78 20.5t77 7q119 0 207 -45t146.5 -119.5t88 -172t29.5 -199.5q-2 -119 -35.5 -216.5t-95 -166t-147.5 -106.5t-195 -38q-59 0 -100 7.5t-71.5 20.5t-54.5 29.5t-44 35.5l-31 -70h-461zM555 514q0 -57 10 -106.5 t29.5 -86t47.5 -57t60 -20.5q66 0 106 69.5t40 186.5q0 45 -10.5 91t-30 81t-47 57.5t-60.5 22.5q-57 0 -101 -63.5t-44 -174.5z" />
<glyph unicode="c" horiz-adv-x="1087" d="M2 518q0 135 42 234.5t111.5 164t161 95t189.5 30.5q51 0 93 -12t74 -30.5t54.5 -39t34.5 -34.5l35 98h241v-463h-301q-2 37 -9 75t-21.5 69.5t-39 51t-59.5 19.5q-45 0 -78.5 -22.5t-56 -59.5t-34 -84t-11.5 -96q0 -104 57.5 -173t159.5 -69q78 0 135.5 32t106.5 85 l180 -209q-37 -39 -88 -76.5t-115.5 -66.5t-140.5 -47.5t-158 -18.5q-113 0 -215 34t-179 102.5t-123 171t-46 239.5z" />
<glyph unicode="d" horiz-adv-x="1298" d="M20 522q0 119 39 216.5t104.5 165t151.5 104t181 36.5q109 0 169 -29.5t89 -47.5v303h-95v266h510v-1270h99v-266h-480l-34 76q-10 -10 -32 -25.5t-54.5 -31t-75.5 -26.5t-96 -11q-109 0 -197 44t-149.5 118.5t-95.5 173t-34 204.5zM461 522q0 -47 10 -92t29.5 -80 t46 -57.5t61.5 -22.5q57 0 101.5 63.5t44.5 174.5q0 57 -10.5 106.5t-30 86t-47 57t-60.5 20.5q-66 0 -105.5 -69.5t-39.5 -186.5z" />
<glyph unicode="e" horiz-adv-x="1110" d="M10 518q0 125 43 224.5t117 169t174 105.5t217 36q127 0 224.5 -37t163 -102.5t98 -154.5t32.5 -194q0 -41 -6 -81t-18 -74h-645q4 -20 13 -49t31.5 -55.5t61.5 -45t105 -18.5q27 0 58.5 2t68 12t77.5 29.5t82 54.5l172 -199q-115 -98 -241.5 -138t-286.5 -40 q-96 0 -192.5 32t-173 98.5t-126 172t-49.5 252.5zM416 612h309q0 29 -6 58.5t-21.5 53.5t-45.5 38t-79 14q-47 0 -76.5 -18.5t-47 -44t-24.5 -54t-9 -47.5z" />
<glyph unicode="f" horiz-adv-x="790" d="M51 758v266h84v174q0 43 11.5 107.5t53.5 124t121.5 101.5t219.5 42q39 0 84 -4t86 -11.5t75.5 -16.5t55.5 -19l-123 -236q-16 8 -44 14.5t-69 6.5q-66 0 -65 -109v-174h186v-266h-186v-490h123v-268h-611v268h82v490h-84z" />
<glyph unicode="g" horiz-adv-x="1310" d="M20 518q0 119 33 216t97.5 166t161 106.5t223.5 37.5q68 0 127 -26.5t90 -56.5l41 63h487v-268h-123v-613q0 -127 -39 -230t-118.5 -177t-199.5 -115t-282 -41q-84 0 -156.5 18.5t-133 46t-105.5 58.5t-74 57l109 228q18 -16 54 -38t83 -43.5t103.5 -35.5t115.5 -14 q70 0 115 18.5t72.5 46t39 61t11.5 66.5v70q-10 -14 -31 -33.5t-50.5 -37t-69.5 -30t-89 -12.5q-133 0 -226 44t-151.5 116t-86.5 164t-28 188zM457 522q0 -47 10 -92t29.5 -80t46 -57.5t61.5 -22.5q57 0 101.5 63.5t44.5 174.5q0 57 -10.5 106.5t-30 86t-47 57t-60.5 20.5 q-66 0 -105.5 -69.5t-39.5 -186.5z" />
<glyph unicode="h" horiz-adv-x="1353" d="M51 0v268h86v1002h-86v266h496v-639q8 14 38.5 41t75 54.5t98.5 48t109 20.5q119 0 189.5 -40t108.5 -104.5t49.5 -145.5t11.5 -161v-342h96v-268h-526v557q0 27 -2 59.5t-13.5 61.5t-36 49.5t-69.5 20.5q-39 0 -64.5 -17.5t-40 -45.5t-19.5 -61.5t-5 -66.5v-289h147 v-268h-643z" />
<glyph unicode="i" horiz-adv-x="675" d="M51 0v268h86v490h-86v266h475v-756h99v-268h-574zM109 1323q0 35 14 72t42 67.5t69.5 50t95.5 19.5q53 0 95 -19.5t70.5 -50t44 -67.5t15.5 -72q0 -86 -57.5 -146.5t-167.5 -60.5q-49 0 -89 18.5t-70 48t-46 66.5t-16 74z" />
<glyph unicode="j" horiz-adv-x="737" d="M29 -154q88 0 136 33t69.5 79t24.5 97t3 88v615h-86v266h475v-881q0 -96 -20.5 -196.5t-86 -184.5t-188.5 -137t-327 -53v274zM233 1323q0 35 14.5 72t42 67.5t69.5 50t96 19.5q53 0 95 -19.5t70.5 -50t44 -67.5t15.5 -72q0 -86 -57.5 -146.5t-167.5 -60.5 q-49 0 -89 18.5t-70 48t-46.5 66.5t-16.5 74z" />
<glyph unicode="k" horiz-adv-x="1339" d="M78 0v266h84v1002h-84v268h473v-926l237 142h-147v270h573v-270h-157l-139 -88l276 -396h102v-268h-606v268h86l-155 221l-72 -49v-172h76v-268h-547z" />
<glyph unicode="l" horiz-adv-x="679" d="M51 0v268h88v1004h-86v264h475v-1268h121v-268h-598z" />
<glyph unicode="m" horiz-adv-x="1859" d="M51 0v268h86v484h-86v270h387l45 -121q12 14 36 40t56.5 50.5t73.5 42t90 17.5q78 0 130.5 -16.5t87 -39t55 -48t32.5 -44.5q47 53 121 100.5t181 47.5q125 0 199.5 -42t115.5 -111t54.5 -157t13.5 -182v-283h100v-276h-520v502q0 20 1 42.5t1 47.5q0 31 -3 60.5 t-11.5 52t-24 37t-41.5 14.5q-66 0 -87.5 -42t-21.5 -108v-332h123v-274h-530v522q0 125 -12.5 179.5t-73.5 54.5q-49 0 -70.5 -30t-21.5 -93v-365h122v-268h-608z" />
<glyph unicode="n" horiz-adv-x="1325" d="M51 0v268h86v490h-86v266h436l48 -127q53 72 123.5 118t168.5 46q119 0 192 -40t112.5 -104.5t53 -145.5t13.5 -161v-342h96v-268h-516v559q0 27 -1 59.5t-11 61.5t-33.5 49.5t-68.5 20.5q-39 0 -65 -17.5t-40 -45.5t-19 -61.5t-5 -66.5v-291h147v-268h-631z" />
<glyph unicode="o" d="M23 516q0 129 48 228.5t126.5 167t180 102.5t206.5 35q121 0 225 -38t181 -109t120 -172t43 -230q0 -127 -44 -224.5t-120 -165t-177 -102.5t-218 -35q-111 0 -214.5 34t-183 101.5t-126.5 170t-47 237.5zM442 514q0 -127 43 -202.5t109 -75.5q33 0 58.5 20t44 57 t27.5 87.5t9 107.5t-10 107.5t-28.5 87t-46 58t-64.5 21.5q-31 0 -56.5 -20.5t-44 -57t-30 -86t-11.5 -104.5z" />
<glyph unicode="p" horiz-adv-x="1306" d="M51 -150h86v902h-86v272h469l35 -72q14 10 37.5 25.5t54.5 29t70 23.5t86 10q119 0 210 -43t151.5 -116.5t91 -171t30.5 -205.5q0 -123 -36 -220.5t-98 -165t-148 -104.5t-185 -37q-63 0 -111.5 10.5t-80 25t-50 27.5t-24.5 17v-207h111v-268h-613v268zM553 514 q0 -57 10 -106.5t29.5 -86t47.5 -57t60 -20.5q66 0 106 69.5t40 186.5q0 45 -10.5 91t-30 81t-47 57.5t-60.5 22.5q-57 0 -101 -63.5t-44 -174.5z" />
<glyph unicode="q" horiz-adv-x="1351" d="M51 518q0 133 38 231.5t104.5 164t155.5 98t192 32.5q100 0 163.5 -30.5t79.5 -50.5l39 61h477v-266h-100v-955h100v-274h-649v268h133v271q-35 -29 -102.5 -57.5t-159.5 -28.5q-98 0 -184 37.5t-149.5 107.5t-100.5 169t-37 222zM492 541q0 -57 10 -106.5t29.5 -86.5 t47 -57.5t60.5 -20.5q66 0 105.5 69.5t39.5 186.5q0 45 -10 91.5t-29.5 81t-47 57t-60.5 22.5q-57 0 -101 -63.5t-44 -173.5z" />
<glyph unicode="r" horiz-adv-x="847" d="M51 0v268h90v490h-88v266h385l62 -131q20 37 42.5 69.5t57.5 58.5t86 40t131 14v-368q-139 0 -214 -46.5t-75 -181.5v-211h103v-268h-580z" />
<glyph unicode="s" horiz-adv-x="1040" d="M31 0v369h274q0 -41 25.5 -68t60.5 -42t72 -21.5t59 -6.5q31 0 60.5 13.5t29.5 56.5q0 29 -42 46.5t-106.5 33.5t-138 38.5t-138 62.5t-106.5 104.5t-42 165.5q0 78 36 134t90 92t116.5 53.5t117.5 17.5q104 0 188.5 -47.5t117.5 -112.5l16 135h252v-369h-266 q0 33 -18.5 60.5t-48.5 49t-66.5 34t-75.5 12.5q-33 0 -56.5 -17.5t-23.5 -56.5q0 -35 43 -55t107.5 -39.5t140 -43.5t140 -62.5t107.5 -99t43 -154.5q0 -72 -31.5 -129.5t-84 -97.5t-122 -60.5t-143.5 -20.5q-111 0 -193.5 45.5t-119.5 104.5l-18 -125h-256z" />
<glyph unicode="t" horiz-adv-x="743" d="M31 758v266h110v188l377 121v-309h195v-266h-195v-365q0 -14 -1 -28.5t-1 -30.5q0 -41 11.5 -73t56.5 -32q20 0 60 11.5t69 23.5v-262q-23 -10 -57.5 -17.5t-71.5 -11.5t-69 -7t-50 -3q-115 0 -179.5 31t-95 86t-39 135t-10.5 178v365h-110z" />
<glyph unicode="u" horiz-adv-x="1292" d="M31 754v270h495v-494q0 -133 23.5 -195.5t87.5 -62.5q53 0 91 43t38 113v326h-135v270h530v-752h101v-272h-388l-55 129q-16 -18 -39.5 -46t-57.5 -52.5t-81 -42t-113 -17.5q-117 0 -195.5 31t-126.5 92.5t-68.5 155.5t-20.5 221v283h-86z" />
<glyph unicode="v" horiz-adv-x="1255" d="M0 764v260h623v-260h-103l94 -217q20 -59 35 -120.5t19 -94.5h8q0 16 5 41.5t13 56.5t19.5 63.5t23.5 63.5l99 207h-109v260h528v-260h-106l-354 -764h-318l-381 764h-96z" />
<glyph unicode="w" horiz-adv-x="1785" d="M0 758v266h551v-266h-70l45 -150q10 -37 19.5 -79t15.5 -82.5t10 -75.5t7 -58h4q2 31 7 82t14 113.5t24.5 135.5t38.5 151l65 229h379l78 -266q18 -59 32.5 -127t27 -129.5t19.5 -111.5t9 -77h4q2 25 7 63t11.5 83t15.5 91t21 87l35 121h-84v266h500v-266h-84l-240 -758 h-432l-141 463l-148 -463h-422l-231 758h-88z" />
<glyph unicode="x" horiz-adv-x="1329" d="M41 0v254h137l209 235l-254 279h-92v256h664v-256h-97l144 -156l153 156h-137v256h522v-256h-135l-217 -219l258 -295h96v-254h-653v254h96l-155 166l-148 -166h133v-254h-524z" />
<glyph unicode="y" horiz-adv-x="1187" d="M-18 762v262h630v-260h-96l133 -320l133 320h-94v260h520v-254h-98l-389 -946q-23 -49 -52.5 -100.5t-78.5 -93.5t-124 -68.5t-185 -26.5q-80 4 -140.5 33t-107.5 70l153 241q29 -27 65 -49.5t71 -22.5q41 0 70.5 35t43.5 76l29 86l-399 758h-84z" />
<glyph unicode="z" horiz-adv-x="1132" d="M51 0v268l494 492h-228v-146h-266v410h1014v-264l-487 -492h215v140h288v-408h-1030z" />
<glyph unicode="{" horiz-adv-x="878" d="M158 455v274q82 0 109.5 25.5t27.5 97.5v322q0 184 78 254.5t219 70.5h162v-309h-47q-35 0 -54.5 -12.5t-29 -28.5t-12.5 -34.5t-3 -33.5v-309q0 -70 -18.5 -106.5t-43 -53t-49 -18.5t-38.5 -2v-4q14 0 38.5 -3t49 -19.5t43 -52.5t18.5 -99v-316q0 -14 4 -32.5t14.5 -36 t30 -28.5t50.5 -11h47v-309h-162q-66 0 -120 17t-94 55t-61.5 100.5t-21.5 154.5v320q0 43 -7 67.5t-23.5 37.5t-43 17.5t-63.5 4.5z" />
<glyph unicode="|" horiz-adv-x="454" d="M57 -121v1655h340v-1655h-340z" />
<glyph unicode="}" horiz-adv-x="884" d="M160 -10h47q31 0 50 11t29.5 28.5t14.5 36t4 32.5v316q0 63 18.5 99t43 52.5t49 19.5t39.5 3v4q-14 0 -39 2t-49.5 18.5t-43 53t-18.5 106.5v309q0 14 -3 33t-12 35t-29.5 28.5t-53.5 12.5h-47v309h162q141 0 218.5 -70.5t77.5 -254.5v-322q0 -72 28 -97.5t110 -25.5 v-274q-39 0 -64.5 -4.5t-42 -17.5t-24 -37.5t-7.5 -67.5v-320q0 -92 -21.5 -154.5t-61 -100.5t-94 -55t-119.5 -17h-162v309z" />
<glyph unicode="~" horiz-adv-x="1363" d="M205 752q37 35 98.5 66.5t159.5 31.5q70 0 122 -18.5t100 -40t98.5 -40t111.5 -18.5q57 0 109.5 24.5t89.5 69.5l69 -319q-86 -115 -262 -115q-80 0 -136 18.5t-103.5 41t-91.5 41t-99 18.5q-57 0 -100 -18.5t-88 -57.5z" />
<glyph unicode="&#xa1;" horiz-adv-x="630" d="M57 -14l109 516h270l111 -516v-389h-490v389zM78 819q0 86 65.5 148.5t178.5 62.5q49 0 91 -18.5t73.5 -47t50 -67.5t18.5 -78t-15.5 -78t-46 -69.5t-73.5 -50t-98 -19.5t-99.5 17.5t-77 47t-50 69.5t-17.5 83z" />
<glyph unicode="&#xa2;" horiz-adv-x="1087" d="M2 518q0 135 42 233.5t110.5 163t160 96t189.5 31.5v78h172v-123q31 -18 51.5 -37.5t34.5 -33.5l35 98h241v-463h-301q-4 53 -17 105.5t-44 83.5v-478q66 6 116 37t95 80l180 -209q-59 -66 -160.5 -122t-230.5 -76v-103h-172v94q-102 8 -193.5 47t-160 107t-108.5 166 t-40 225zM428 514q0 -59 19.5 -108.5t56.5 -81.5v409q-39 -37 -57.5 -95t-18.5 -124z" />
<glyph unicode="&#xa3;" horiz-adv-x="1527" d="M59 465v272h154q6 168 57.5 301t131 226.5t178 142.5t196.5 49q76 0 132.5 -18.5t95 -42t60 -47t28.5 -31.5l47 115h321v-582h-366q-2 49 -16.5 96t-40 83t-65.5 57.5t-95 21.5q-53 0 -96.5 -28.5t-75 -79t-50 -118t-22.5 -145.5h344v-272h-344v-193h489v191h355v-463 h-1414v272h150v193h-154z" />
<glyph unicode="&#xa4;" horiz-adv-x="1607" d="M31 373l205 268q-2 14 -2.5 28.5t-0.5 30.5v27.5t3 26.5l-205 272l258 162l90 -121q80 82 189.5 124t226.5 42q133 0 241.5 -45t186.5 -123l88 117l258 -166l-209 -275q2 -12 3 -24t1 -25q0 -16 -1 -29.5t-1 -27.5l207 -273l-258 -161l-88 116q-78 -78 -185.5 -118.5 t-232.5 -40.5q-123 0 -235.5 41t-194.5 125l-86 -117zM653 698q0 -127 43 -202.5t109 -75.5q33 0 58.5 20.5t44 57.5t27.5 87t9 107t-10 107.5t-28.5 87.5t-46.5 58.5t-64 21.5q-31 0 -56.5 -20.5t-44 -57.5t-30 -86t-11.5 -105z" />
<glyph unicode="&#xa5;" horiz-adv-x="1370" d="M-20 1169v263h700v-263h-107l183 -186h8l188 186h-112v263h551v-263h-111l-326 -350h156v-157h-209v-105h209v-156h-209v-135h115v-266h-656v266h117v135h-188v156h188v105h-188v157h135l-344 350h-100z" />
<glyph unicode="&#xa6;" horiz-adv-x="454" d="M57 -121v647h340v-647h-340zM57 948v586h340v-586h-340z" />
<glyph unicode="&#xa7;" horiz-adv-x="983" d="M41 561q0 57 19.5 97t50 68t67.5 44t72 27q-25 12 -51.5 31.5t-49 51t-37 76.5t-14.5 105q0 88 37 148.5t100.5 96t149.5 51t182 15.5q131 0 210 -21.5t128 -39.5v-277q-78 20 -165 41t-167 21q-41 0 -65.5 -13.5t-24.5 -50.5q0 -35 42 -55.5t102 -46.5l108 -51 q39 -18 77 -41t66.5 -54.5t46 -75t17.5 -102.5q0 -61 -19.5 -106t-49 -74t-63.5 -46.5t-65 -23.5q20 -12 45 -31.5t46.5 -49t35 -69.5t13.5 -91q0 -100 -37 -164t-99.5 -98.5t-143.5 -48t-169 -13.5q-121 0 -210 14.5t-148 34.5v285q82 -23 169 -41t142 -18q47 0 79 13 t32 54q0 33 -36 52.5t-87 41.5l-98 43q-43 18 -86 43t-77 59t-54.5 80t-20.5 109zM395 596q0 -41 24.5 -65.5t57.5 -38.5l62 -27q16 14 34.5 39.5t18.5 60.5q0 45 -16.5 66.5t-51.5 38.5l-61 28q-23 -14 -45.5 -40.5t-22.5 -61.5z" />
<glyph unicode="&#xa8;" horiz-adv-x="1200" d="M109 1323q0 35 14 72t42 67.5t69.5 50t95.5 19.5q53 0 95 -19.5t70.5 -50t44 -67.5t15.5 -72q0 -86 -57.5 -146.5t-167.5 -60.5q-49 0 -89 18.5t-70 48t-46 66.5t-16 74zM672 1323q0 35 14 72t42 67.5t70 50t95 19.5t95 -19.5t70.5 -50t44 -67.5t15.5 -72 q0 -86 -57 -146.5t-168 -60.5q-49 0 -89 18.5t-69.5 48t-46 66.5t-16.5 74z" />
<glyph unicode="&#xa9;" horiz-adv-x="1597" d="M51 707q0 195 57.5 342t158 246.5t236.5 149.5t296 50t296 -52t236.5 -151.5t157.5 -247t57 -337.5q0 -193 -57 -340.5t-157.5 -247t-237 -150.5t-295.5 -51q-160 0 -296 49t-236.5 147.5t-158 247t-57.5 345.5zM358 707q0 -139 32 -242t89.5 -169.5t139 -99t180.5 -32.5 q205 0 322.5 133.5t117.5 409.5q0 262 -111.5 402t-328.5 140t-329 -132t-112 -410zM479 711q0 129 39 207.5t96.5 121.5t125 58.5t122.5 15.5q57 0 94 -11t60 -22v-194q-31 10 -63.5 20.5t-80.5 10.5q-66 0 -104.5 -45.5t-38.5 -161.5q0 -98 33 -151.5t98 -53.5q45 0 84 8 t72 21v-201q-31 -12 -70 -21.5t-96 -9.5q-55 0 -119.5 14.5t-120 57.5t-93.5 123t-38 213z" />
<glyph unicode="&#xaa;" horiz-adv-x="921" d="M23 858q0 66 25.5 118t68.5 89t101 56.5t124 19.5q68 0 107.5 -23.5t44.5 -30.5v54q0 53 -41 69.5t-105 16.5q-68 0 -126 -23.5t-103 -48.5l-64 178q23 14 59 32.5t79 36t93 30t103 12.5q70 0 143.5 -14.5t135 -51.5t100.5 -98t39 -154v-299h92v-196h-330l-37 69 q-23 -31 -49 -49t-55 -29.5t-55.5 -15.5t-46.5 -4q-55 0 -109.5 15.5t-97.5 46t-69.5 79t-26.5 115.5zM25 195v272h870v-272h-870zM315 872q0 -33 22.5 -52t57.5 -19t61.5 17.5t37.5 33.5v57q-4 6 -22.5 25.5t-68.5 19.5q-47 0 -67.5 -22.5t-20.5 -59.5z" />
<glyph unicode="&#xab;" horiz-adv-x="1155" d="M0 522l348 508l236 -160l-236 -348l236 -348l-236 -158zM584 522l338 508l235 -160l-235 -348l235 -348l-235 -158z" />
<glyph unicode="&#xac;" horiz-adv-x="1249" d="M61 532v328h1127v-657h-348v329h-779z" />
<glyph unicode="&#xad;" horiz-adv-x="915" d="M66 352v273h772v-273h-772z" />
<glyph unicode="&#xae;" horiz-adv-x="1597" d="M51 707q0 195 57.5 342t158 246.5t236.5 149.5t296 50t296 -52t236.5 -151.5t157.5 -247t57 -337.5q0 -193 -57 -340.5t-157.5 -247t-237 -150.5t-295.5 -51q-160 0 -296 49t-236.5 147.5t-158 247t-57.5 345.5zM358 707q0 -139 32 -242t89.5 -169.5t139 -99t180.5 -32.5 q205 0 322.5 133.5t117.5 409.5q0 262 -111.5 402t-328.5 140t-329 -132t-112 -410zM528 342v758h248q59 0 117.5 -5t106 -28t76 -68t28.5 -122q0 -80 -41 -124t-111 -75q51 -31 76 -77t43 -99l53 -160h-252l-22 121q-10 53 -21.5 89t-40.5 64l-32 -6v-268h-228zM756 745 q37 8 60.5 16.5t35.5 21t17 31.5t5 52q0 61 -26.5 73.5t-69.5 12.5h-22v-207z" />
<glyph unicode="&#xaf;" horiz-adv-x="1325" d="M55 1157v273h1143v-273h-1143z" />
<glyph unicode="&#xb0;" d="M96 1075q0 90 43 161t113 120t158 74.5t176 25.5q117 0 208 -30.5t153.5 -85t95 -128t32.5 -159.5q0 -90 -43 -161t-112.5 -120t-157.5 -74.5t-176 -25.5q-121 0 -212 30.5t-152.5 85t-93.5 128t-32 159.5zM436 1059q0 -57 48 -93t106 -36q55 0 100 39t45 100q0 15 -6 31 q0 23 -15.5 41t-38 30.5t-48 19.5t-45.5 7q-55 0 -100.5 -39t-45.5 -100z" />
<glyph unicode="&#xb1;" horiz-adv-x="1478" d="M70 131v324h1288v-324h-1288zM70 938v324h477v321h334v-321h477v-324h-477v-338h-334v338h-477z" />
<glyph unicode="&#xb2;" horiz-adv-x="724" d="M76 575v179q25 41 45 69.5t39.5 52t42 43t53.5 44.5q33 29 71 54t70.5 49t54 48.5t21.5 52.5q0 47 -30.5 64.5t-73.5 17.5q-49 0 -85 -32.5t-65 -61.5l-133 141q133 152 320 152q61 0 114 -18.5t93 -53.5t62.5 -85t22.5 -111q0 -53 -12 -91t-36.5 -69t-61.5 -58.5 t-86 -58.5q-23 -14 -50.5 -34.5t-54 -43t-48 -45t-32.5 -41.5h215v99h207v-263h-663z" />
<glyph unicode="&#xb3;" horiz-adv-x="704" d="M37 700l125 131q35 -35 71.5 -57t90.5 -22q53 0 81.5 23.5t28.5 70.5q0 49 -26.5 69.5t-73.5 20.5h-92v145h88q45 0 74.5 21.5t29.5 62.5q0 51 -33.5 75t-72.5 24q-35 0 -74 -19.5t-72 -54.5l-119 143q16 18 44 39t63 38t75 28.5t83 11.5q150 0 231.5 -70.5t81.5 -189.5 q0 -63 -34 -100t-58 -56q14 -10 33.5 -27.5t38 -43t31 -58.5t12.5 -74q0 -68 -30 -118.5t-78 -84.5t-109.5 -50.5t-122.5 -16.5q-43 0 -87 11.5t-83 31t-69 45t-48 51.5z" />
<glyph unicode="&#xb4;" horiz-adv-x="1042" d="M-80 1145l160 291h405l-309 -291h-256z" />
<glyph unicode="&#xb5;" horiz-adv-x="1292" d="M-117 -154q88 0 136.5 33t70 79t24.5 97t3 88v611h-86v270h495v-494q0 -133 23.5 -195.5t87.5 -62.5q53 0 91 43t38 113v326h-135v270h530v-752h101v-272h-388l-49 98q0 -16 -15 -38.5t-41 -43t-58.5 -34t-67.5 -13.5t-66.5 19.5t-50.5 70.5q-16 -78 -58 -163.5 t-119 -157.5t-191.5 -119t-274.5 -47v274z" />
<glyph unicode="&#xb6;" horiz-adv-x="1284" d="M100 1065q0 104 36 175t100.5 112t153.5 58t196 17h585v-1685h-239v1501h-141v-1501h-240v956q-236 0 -343.5 96.5t-107.5 270.5z" />
<glyph unicode="&#xb7;" horiz-adv-x="520" d="M31 823q0 39 14 79t44 74t72 55.5t97 21.5t98 -21.5t73 -55.5t45 -74t15 -79q0 -92 -60 -154.5t-171 -62.5q-47 0 -89 18.5t-72.5 49.5t-48 69.5t-17.5 79.5z" />
<glyph unicode="&#xb8;" horiz-adv-x="878" d="M268 -369l66 127q49 -23 98 -22q68 0 68 49t-68 49q-18 0 -32.5 -1t-24.5 -3l-21 35l56 176l161 -21l-32 -71q74 -6 115.5 -48.5t41.5 -101.5q0 -37 -13 -74.5t-42 -67.5t-76 -48.5t-116 -18.5q-47 0 -97.5 12.5t-83.5 28.5z" />
<glyph unicode="&#xb9;" horiz-adv-x="636" d="M29 1268q27 12 50 24.5t49 28.5t53.5 40.5t62.5 65.5h219v-694h115v-164h-492v164h123v455l-123 -58z" />
<glyph unicode="&#xba;" horiz-adv-x="880" d="M16 1047q0 96 36 170.5t95.5 125t135 77t155.5 26.5q92 0 170 -28.5t134.5 -82t89 -130.5t32.5 -173q0 -94 -32.5 -167.5t-90 -124t-134.5 -76t-163 -25.5q-84 0 -160.5 25.5t-136 76t-95.5 127t-36 179.5zM25 195v272h839v-272h-839zM332 1044q0 -94 32.5 -151t79.5 -57 q51 0 78 59t27 145t-28.5 145.5t-82.5 59.5q-47 0 -76.5 -57.5t-29.5 -143.5z" />
<glyph unicode="&#xbb;" horiz-adv-x="1155" d="M0 174l236 348l-236 348l236 160l348 -508l-348 -506zM573 870l236 160l348 -508l-348 -506l-225 158l225 348z" />
<glyph unicode="&#xbc;" horiz-adv-x="1693" d="M92 1270q27 12 50.5 24.5t49 28.5t53 41t62.5 66h219v-695h115v-164h-491v164h122v455l-122 -57zM332 -113l850 1649h239l-850 -1649h-239zM922 242v176l354 440h254v-483h65v-133h-65v-80h65v-162h-397v162h78v80h-354zM1094 375h182v227z" />
<glyph unicode="&#xbd;" horiz-adv-x="1792" d="M92 1270q27 12 50.5 24.5t49 28.5t53 41t62.5 66h219v-695h115v-164h-491v164h122v455l-122 -57zM332 -113l850 1649h239l-850 -1649h-239zM1042 0v178q25 41 45.5 69.5t40 52.5t42 43t53.5 44q33 29 70.5 54.5t70.5 49t54.5 48t21.5 53.5q0 47 -31 64.5t-74 17.5 q-49 0 -85 -33t-64 -61l-133 141q133 152 319 151q61 0 114.5 -18t93.5 -53t62.5 -85t22.5 -112q0 -53 -12.5 -91t-37 -68.5t-61 -58.5t-86.5 -58q-23 -14 -50 -35t-54 -43.5t-48.5 -45t-31.5 -40.5h215v98h207v-262h-664z" />
<glyph unicode="&#xbe;" horiz-adv-x="1693" d="M82 702l125 132q35 -35 71.5 -57.5t90.5 -22.5q53 0 81.5 23.5t28.5 70.5q0 49 -26.5 69.5t-73.5 20.5h-92v145h88q45 0 74.5 21.5t29.5 62.5q0 51 -33.5 75t-72.5 24q-35 0 -74 -19.5t-72 -54.5l-118 143q16 18 43.5 39t62.5 38.5t75 28.5t83 11q150 0 231.5 -70.5 t81.5 -189.5q0 -63 -34 -100t-58 -56q14 -10 33.5 -27.5t38 -43t31 -58.5t12.5 -73q0 -68 -30 -119t-78 -85t-109.5 -50.5t-122.5 -16.5q-43 0 -87 11.5t-83 31t-69 45t-48 51.5zM332 -113l850 1649h239l-850 -1649h-239zM922 242v176l354 440h254v-483h65v-133h-65v-80h65 v-162h-397v162h78v80h-354zM1094 375h182v227z" />
<glyph unicode="&#xbf;" horiz-adv-x="1064" d="M4 -20q0 66 24.5 116.5t60.5 91.5t78 73t78 60.5t60.5 55t24.5 57.5v113h379l2 -164q0 -72 -50.5 -128t-112 -104.5t-112.5 -90.5t-51 -85q0 -29 13.5 -48t35 -29.5t49 -14.5t54.5 -4q33 0 68.5 14.5t71.5 39t67.5 54t58.5 60.5l221 -223q-109 -125 -244 -194.5 t-288 -69.5q-102 0 -191.5 26.5t-155 79.5t-103.5 131t-38 183zM287 815q0 86 65.5 148.5t177.5 62.5q49 0 92.5 -18.5t75 -47t49 -67.5t17.5 -78t-15.5 -78t-46 -69.5t-73.5 -50t-99 -19.5q-55 0 -99 17.5t-76.5 47t-50 69.5t-17.5 83z" />
<glyph unicode="&#xc0;" horiz-adv-x="1685" d="M31 0v268h139l276 899h-84v265h787l362 -1164h144v-268h-821v268h194l-43 140h-420l-43 -140h160v-268h-651zM434 1843h406l159 -291h-256zM641 653h268l-135 443z" />
<glyph unicode="&#xc1;" horiz-adv-x="1685" d="M31 0v268h139l276 899h-84v265h787l362 -1164h144v-268h-821v268h194l-43 140h-420l-43 -140h160v-268h-651zM641 653h268l-135 443zM651 1552l160 291h406l-310 -291h-256z" />
<glyph unicode="&#xc2;" horiz-adv-x="1685" d="M31 0v268h139l276 899h-84v265h787l362 -1164h144v-268h-821v268h194l-43 140h-420l-43 -140h160v-268h-651zM420 1716l391 244l387 -244l-115 -190l-309 143l-252 -143zM641 653h268l-135 443z" />
<glyph unicode="&#xc3;" horiz-adv-x="1685" d="M31 0v268h139l276 899h-84v265h787l362 -1164h144v-268h-821v268h194l-43 140h-420l-43 -140h160v-268h-651zM463 1755q47 59 104.5 90t134.5 31q49 0 82 -11.5t63 -24.5t60.5 -24.5t73.5 -11.5q45 0 87 18.5t62 41.5l93 -215q-45 -55 -104.5 -84t-147.5 -29 q-47 0 -79 12.5t-60.5 25.5t-59.5 25.5t-76 12.5q-82 0 -143 -62zM641 653h268l-135 443z" />
<glyph unicode="&#xc4;" horiz-adv-x="1685" d="M31 0v268h139l276 899h-84v265h787l362 -1164h144v-268h-821v268h194l-43 140h-420l-43 -140h160v-268h-651zM338 1731q0 35 14.5 71.5t42 67.5t69.5 50t95 19t95 -19t71 -50t44 -68t15 -71q0 -86 -57 -146.5t-168 -60.5q-49 0 -89 18.5t-69.5 48t-46 66.5t-16.5 74z M641 653h268l-135 443zM901 1731q0 35 14.5 71.5t42 67.5t69.5 50t95 19t95.5 -19t71 -50t44 -68t15.5 -71q0 -86 -57.5 -146.5t-168.5 -60.5q-49 0 -89 18.5t-69.5 48t-46 66.5t-16.5 74z" />
<glyph unicode="&#xc5;" horiz-adv-x="1685" d="M31 0v268h139l276 899h-84v265h787l362 -1164h144v-268h-821v268h194l-43 140h-420l-43 -140h160v-268h-651zM551 1683q0 45 19.5 84t53 69t76.5 47.5t93 17.5q49 0 91 -17.5t74.5 -47.5t51 -69t18.5 -84t-19.5 -83.5t-52 -68.5t-75.5 -47.5t-88 -17.5q-51 0 -95.5 17.5 t-77 47.5t-51 68.5t-18.5 83.5zM641 653h268l-135 443zM705 1683q0 -37 24.5 -61.5t58.5 -24.5q39 0 62.5 24.5t23.5 61.5t-24.5 61.5t-54.5 24.5q-41 0 -65.5 -24.5t-24.5 -61.5z" />
<glyph unicode="&#xc6;" horiz-adv-x="2379" d="M88 0v268h139l533 899h-84v265h1603v-453h-354v182h-328v-282h390v-273h-390v-334h328v191h354v-463h-1235v272h130v136h-449l-84 -140h158v-268h-711zM870 653h304v514z" />
<glyph unicode="&#xc7;" horiz-adv-x="1404" d="M31 702q0 176 59.5 316.5t151.5 238t201.5 148.5t209.5 51q76 0 132.5 -18.5t95.5 -42t60.5 -47t27.5 -31.5l47 115h321v-582h-366q-2 49 -16.5 96t-40 83t-65.5 57.5t-95 21.5t-100.5 -32t-77 -87t-49 -129t-17.5 -158q0 -76 19.5 -145.5t57.5 -122.5t93 -85t129 -32 q63 0 120.5 29t100.5 64.5t70.5 67.5t34.5 40l239 -262q-49 -55 -112.5 -105.5t-137 -89t-158.5 -63.5t-180 -29l-28 -63q74 -6 115.5 -48.5t41.5 -101.5q0 -37 -13 -74.5t-42 -67.5t-76 -48.5t-116 -18.5q-47 0 -97.5 12.5t-83.5 28.5l66 127q49 -23 98 -22q68 0 68 49 t-68 49q-18 0 -32.5 -1t-24.5 -3l-21 35l48 155q-135 18 -244 77t-185.5 151t-118.5 218t-42 279z" />
<glyph unicode="&#xc8;" horiz-adv-x="1337" d="M51 0v272h129v889h-129v271h1235v-453h-354v182h-328v-282h389v-273h-389v-334h328v191h354v-463h-1235zM385 1843h406l159 -291h-256z" />
<glyph unicode="&#xc9;" horiz-adv-x="1337" d="M51 0v272h129v889h-129v271h1235v-453h-354v182h-328v-282h389v-273h-389v-334h328v191h354v-463h-1235zM477 1552l160 291h405l-309 -291h-256z" />
<glyph unicode="&#xca;" horiz-adv-x="1337" d="M51 0v272h129v889h-129v271h1235v-453h-354v182h-328v-282h389v-273h-389v-334h328v191h354v-463h-1235zM246 1716l391 244l387 -244l-115 -190l-284 143l-277 -143z" />
<glyph unicode="&#xcb;" horiz-adv-x="1337" d="M51 0v272h129v889h-129v271h1235v-453h-354v182h-328v-282h389v-273h-389v-334h328v191h354v-463h-1235zM164 1731q0 35 14.5 71.5t42 67.5t69.5 50t95 19t95 -19t71 -50t44 -68t15 -71q0 -86 -57 -146.5t-168 -60.5q-49 0 -89 18.5t-69.5 48t-46 66.5t-16.5 74z M727 1731q0 35 14.5 71.5t42 67.5t69.5 50t95 19t95 -19t71 -50t44.5 -68t15.5 -71q0 -86 -57.5 -146.5t-168.5 -60.5q-49 0 -89 18.5t-69.5 48t-46 66.5t-16.5 74z" />
<glyph unicode="&#xcc;" horiz-adv-x="782" d="M51 0v272h129v889h-129v271h680v-271h-127v-889h127v-272h-680zM109 1843h405l160 -291h-256z" />
<glyph unicode="&#xcd;" horiz-adv-x="782" d="M51 0v272h129v889h-129v271h680v-271h-127v-889h127v-272h-680zM201 1552l159 291h406l-309 -291h-256z" />
<glyph unicode="&#xce;" horiz-adv-x="782" d="M14 1716l392 244l387 -244l-115 -190l-285 143l-276 -143zM51 0v272h129v889h-129v271h680v-271h-127v-889h127v-272h-680z" />
<glyph unicode="&#xcf;" horiz-adv-x="782" d="M-113 1731q0 35 14.5 71.5t42 67.5t69.5 50t96 19q53 0 95 -19t70.5 -50t44 -68t15.5 -71q0 -86 -57.5 -146.5t-167.5 -60.5q-49 0 -89 18.5t-70 48t-46.5 66.5t-16.5 74zM51 0v272h129v889h-129v271h680v-271h-127v-889h127v-272h-680zM451 1731q0 35 14 71.5t42 67.5 t69.5 50t95.5 19q53 0 95 -19t70.5 -50t44 -68t15.5 -71q0 -86 -57.5 -146.5t-167.5 -60.5q-49 0 -89 18.5t-70 48t-46 66.5t-16 74z" />
<glyph unicode="&#xd0;" horiz-adv-x="1474" d="M51 0v272h127v312h-92v272h92v305h-127v271h625q186 0 330.5 -54.5t244 -147.5t151.5 -220t52 -275q0 -352 -202.5 -543.5t-583.5 -191.5h-617zM598 272h78q82 0 140 37t95 99.5t54.5 146.5t17.5 180q0 82 -17.5 159t-54.5 136.5t-95 95t-140 35.5h-78v-305h82v-272h-82 v-312z" />
<glyph unicode="&#xd1;" horiz-adv-x="1671" d="M51 0v264h121v903h-119v265h588l504 -752v487h-141v265h616v-265h-135v-1167h-441l-522 780v-516h158v-264h-629zM455 1755q47 59 104 90t135 31q49 0 82 -11.5t62.5 -24.5t60.5 -24.5t74 -11.5q45 0 87 18.5t62 41.5l92 -215q-45 -55 -104 -84t-147 -29q-47 0 -79 12.5 t-60.5 25.5t-59.5 25.5t-76 12.5q-82 0 -143 -62z" />
<glyph unicode="&#xd2;" horiz-adv-x="1515" d="M31 723q0 166 52 303t147.5 236.5t227.5 153.5t292 54q188 0 326 -54t229.5 -153.5t135.5 -240.5t44 -313q0 -174 -47 -312.5t-139.5 -234.5t-226.5 -147.5t-308 -51.5q-160 0 -295 47t-232.5 141.5t-151.5 236.5t-54 335zM475 1843h406l159 -291h-256zM537 723 q0 -100 17 -181t47 -138.5t72 -88t91 -30.5t87 30.5t65.5 86t42 133t14.5 174.5q0 94 -13.5 175t-41 141t-70.5 95t-103 35q-47 0 -84.5 -31.5t-65.5 -89t-43 -137.5t-15 -174z" />
<glyph unicode="&#xd3;" horiz-adv-x="1515" d="M31 723q0 166 52 303t147.5 236.5t227.5 153.5t292 54q188 0 326 -54t229.5 -153.5t135.5 -240.5t44 -313q0 -174 -47 -312.5t-139.5 -234.5t-226.5 -147.5t-308 -51.5q-160 0 -295 47t-232.5 141.5t-151.5 236.5t-54 335zM537 723q0 -100 17 -181t47 -138.5t72 -88 t91 -30.5t87 30.5t65.5 86t42 133t14.5 174.5q0 94 -13.5 175t-41 141t-70.5 95t-103 35q-47 0 -84.5 -31.5t-65.5 -89t-43 -137.5t-15 -174zM567 1552l160 291h406l-310 -291h-256z" />
<glyph unicode="&#xd4;" horiz-adv-x="1515" d="M31 723q0 166 52 303t147.5 236.5t227.5 153.5t292 54q188 0 326 -54t229.5 -153.5t135.5 -240.5t44 -313q0 -174 -47 -312.5t-139.5 -234.5t-226.5 -147.5t-308 -51.5q-160 0 -295 47t-232.5 141.5t-151.5 236.5t-54 335zM334 1716l391 244l387 -244l-115 -190l-284 143 l-277 -143zM537 723q0 -100 17 -181t47 -138.5t72 -88t91 -30.5t87 30.5t65.5 86t42 133t14.5 174.5q0 94 -13.5 175t-41 141t-70.5 95t-103 35q-47 0 -84.5 -31.5t-65.5 -89t-43 -137.5t-15 -174z" />
<glyph unicode="&#xd5;" horiz-adv-x="1515" d="M31 723q0 166 52 303t147.5 236.5t227.5 153.5t292 54q188 0 326 -54t229.5 -153.5t135.5 -240.5t44 -313q0 -174 -47 -312.5t-139.5 -234.5t-226.5 -147.5t-308 -51.5q-160 0 -295 47t-232.5 141.5t-151.5 236.5t-54 335zM377 1755q47 59 104.5 90t134.5 31 q49 0 82 -11.5t63 -24.5t60.5 -24.5t73.5 -11.5q45 0 87 18.5t62 41.5l93 -215q-45 -55 -104.5 -84t-147.5 -29q-47 0 -79 12.5t-60.5 25.5t-59.5 25.5t-76 12.5q-82 0 -143 -62zM537 723q0 -100 17 -181t47 -138.5t72 -88t91 -30.5t87 30.5t65.5 86t42 133t14.5 174.5 q0 94 -13.5 175t-41 141t-70.5 95t-103 35q-47 0 -84.5 -31.5t-65.5 -89t-43 -137.5t-15 -174z" />
<glyph unicode="&#xd6;" horiz-adv-x="1515" d="M31 723q0 166 52 303t147.5 236.5t227.5 153.5t292 54q188 0 326 -54t229.5 -153.5t135.5 -240.5t44 -313q0 -174 -47 -312.5t-139.5 -234.5t-226.5 -147.5t-308 -51.5q-160 0 -295 47t-232.5 141.5t-151.5 236.5t-54 335zM252 1731q0 35 14.5 71.5t42 67.5t69.5 50 t95 19t95 -19t71 -50t44 -68t15 -71q0 -86 -57 -146.5t-168 -60.5q-49 0 -89 18.5t-69.5 48t-46 66.5t-16.5 74zM537 723q0 -100 17 -181t47 -138.5t72 -88t91 -30.5t87 30.5t65.5 86t42 133t14.5 174.5q0 94 -13.5 175t-41 141t-70.5 95t-103 35q-47 0 -84.5 -31.5 t-65.5 -89t-43 -137.5t-15 -174zM815 1731q0 35 14.5 71.5t42 67.5t69.5 50t95 19t95.5 -19t71 -50t44 -68t15.5 -71q0 -86 -57.5 -146.5t-168.5 -60.5q-49 0 -89 18.5t-69.5 48t-46 66.5t-16.5 74z" />
<glyph unicode="&#xd7;" horiz-adv-x="1478" d="M143 356l344 344l-335 338l227 228l338 -336l338 338l237 -236l-340 -340l338 -336l-229 -229l-336 338l-346 -346z" />
<glyph unicode="&#xd8;" horiz-adv-x="1515" d="M31 723q0 166 52 303t147.5 236.5t227.5 153.5t292 54q98 0 183 -16t157 -45l16 23h299l-111 -158q98 -100 144.5 -243.5t46.5 -321.5q0 -174 -47 -312.5t-139.5 -234.5t-226.5 -147.5t-308 -51.5q-186 0 -338 64l-18 -27h-299l114 164q-92 96 -142 234.5t-50 324.5z M537 723q0 -29 1 -53.5t3 -48.5l331 477q-51 57 -127 57q-47 0 -84.5 -31.5t-65.5 -89t-43 -137.5t-15 -174zM645 340q49 -55 119 -55q49 0 87 30.5t65.5 86t42 133t14.5 174.5q0 25 -1 49t-3 47z" />
<glyph unicode="&#xd9;" horiz-adv-x="1509" d="M31 1165v267h651v-265h-111v-442q0 -123 13.5 -201t40 -122t64.5 -60t87 -16q47 0 85 13t65.5 55t42 121t14.5 212v434h-111v271h607v-265h-111v-497q0 -365 -149.5 -535t-438.5 -170q-311 10 -473 177t-162 517v506h-114zM340 1843h405l160 -291h-256z" />
<glyph unicode="&#xda;" horiz-adv-x="1509" d="M31 1165v267h651v-265h-111v-442q0 -123 13.5 -201t40 -122t64.5 -60t87 -16q47 0 85 13t65.5 55t42 121t14.5 212v434h-111v271h607v-265h-111v-497q0 -365 -149.5 -535t-438.5 -170q-311 10 -473 177t-162 517v506h-114zM643 1552l160 291h405l-309 -291h-256z" />
<glyph unicode="&#xdb;" horiz-adv-x="1509" d="M31 1165v267h651v-265h-111v-442q0 -123 13.5 -201t40 -122t64.5 -60t87 -16q47 0 85 13t65.5 55t42 121t14.5 212v434h-111v271h607v-265h-111v-497q0 -365 -149.5 -535t-438.5 -170q-311 10 -473 177t-162 517v506h-114zM387 1716l391 244l387 -244l-114 -190l-285 143 l-277 -143z" />
<glyph unicode="&#xdc;" horiz-adv-x="1509" d="M31 1165v267h651v-265h-111v-442q0 -123 13.5 -201t40 -122t64.5 -60t87 -16q47 0 85 13t65.5 55t42 121t14.5 212v434h-111v271h607v-265h-111v-497q0 -365 -149.5 -535t-438.5 -170q-311 10 -473 177t-162 517v506h-114zM264 1731q0 35 14.5 71.5t42 67.5t69.5 50 t95 19t95.5 -19t71 -50t44 -68t15.5 -71q0 -86 -57.5 -146.5t-168.5 -60.5q-49 0 -89 18.5t-69.5 48t-46 66.5t-16.5 74zM827 1731q0 35 14.5 71.5t42 67.5t69.5 50t96 19q53 0 95 -19t70.5 -50t44 -68t15.5 -71q0 -86 -57.5 -146.5t-167.5 -60.5q-49 0 -89 18.5t-70 48 t-46.5 66.5t-16.5 74z" />
<glyph unicode="&#xdd;" horiz-adv-x="1370" d="M-20 1169v263h700v-263h-107l119 -217q4 -14 13.5 -36.5t19.5 -47t18.5 -47t12.5 -35.5h8q2 14 11 37t20.5 47.5t23.5 49t21 43.5l112 206h-112v263h551v-263h-111l-379 -665v-238h115v-266h-656v266h117v242l-397 661h-100zM618 1552l160 291h406l-310 -291h-256z" />
<glyph unicode="&#xde;" horiz-adv-x="1310" d="M37 0v272h129v889h-129v271h680v-271h-127v-71h125q178 0 288.5 -28t172 -79t83 -121.5t21.5 -159.5q0 -102 -43 -170.5t-116.5 -111.5t-171 -61.5t-208.5 -18.5h-151v-68h127v-272h-680zM590 561h88q45 0 82 4t63.5 18.5t41 39t14.5 65.5q0 45 -13.5 71.5t-38 41 t-59.5 18.5t-80 4h-98v-262z" />
<glyph unicode="&#xdf;" horiz-adv-x="1361" d="M51 758v266h84v174q0 43 33 107.5t98.5 124t167 101.5t240.5 42q121 0 224 -25.5t180 -79t121 -135.5t44 -194q0 -53 -16.5 -94t-40 -73t-49 -55.5t-45.5 -37.5q25 -18 60.5 -55.5t69 -89.5t58.5 -115.5t25 -133.5q0 -115 -53.5 -209t-138.5 -161.5t-189.5 -104.5 t-208.5 -37l2 297q43 0 81 20.5t65.5 52.5t44 72t16.5 79q0 41 -15.5 80.5t-42 70.5t-61.5 50.5t-74 19.5l-4 243q74 0 124 36t50 106q0 53 -18.5 92t-50 64.5t-72.5 38t-84 12.5q-16 0 -40 -6.5t-45.5 -20.5t-35.5 -34.5t-14 -47.5v-930h92v-268h-580v268h82v490h-84z" />
<glyph unicode="&#xe0;" horiz-adv-x="1228" d="M31 303q0 86 33.5 155.5t92 119t136.5 76t164 26.5q45 0 80.5 -9t61.5 -21.5t41 -25t19 -16.5v72q0 70 -55 92.5t-139 22.5q-92 0 -169 -31t-136 -64l-86 238q31 18 78 43t105 48.5t125 38.5t138 15q92 0 190.5 -19.5t179.5 -67.5t133 -130t52 -204v-400h123v-262h-438 l-49 92q-29 -39 -65 -64.5t-73.5 -40t-74.5 -20.5t-64 -6q-74 0 -145.5 20.5t-129 61.5t-93 105.5t-35.5 154.5zM59 1436h406l160 -291h-256zM420 324q0 -43 30.5 -70t77.5 -27t82 22.5t49 45.5v78q-2 4 -9 13t-21.5 19.5t-36 18.5t-53.5 8q-61 0 -90 -30.5t-29 -77.5z" />
<glyph unicode="&#xe1;" horiz-adv-x="1228" d="M31 303q0 86 33.5 155.5t92 119t136.5 76t164 26.5q45 0 80.5 -9t61.5 -21.5t41 -25t19 -16.5v72q0 70 -55 92.5t-139 22.5q-92 0 -169 -31t-136 -64l-86 238q31 18 78 43t105 48.5t125 38.5t138 15q92 0 190.5 -19.5t179.5 -67.5t133 -130t52 -204v-400h123v-262h-438 l-49 92q-29 -39 -65 -64.5t-73.5 -40t-74.5 -20.5t-64 -6q-74 0 -145.5 20.5t-129 61.5t-93 105.5t-35.5 154.5zM420 324q0 -43 30.5 -70t77.5 -27t82 22.5t49 45.5v78q-2 4 -9 13t-21.5 19.5t-36 18.5t-53.5 8q-61 0 -90 -30.5t-29 -77.5zM424 1145l160 291h405l-309 -291 h-256z" />
<glyph unicode="&#xe2;" horiz-adv-x="1228" d="M31 303q0 86 33.5 155.5t92 119t136.5 76t164 26.5q45 0 80.5 -9t61.5 -21.5t41 -25t19 -16.5v72q0 70 -55 92.5t-139 22.5q-92 0 -169 -31t-136 -64l-86 238q31 18 78 43t105 48.5t125 38.5t138 15q92 0 190.5 -19.5t179.5 -67.5t133 -130t52 -204v-400h123v-262h-438 l-49 92q-29 -39 -65 -64.5t-73.5 -40t-74.5 -20.5t-64 -6q-74 0 -145.5 20.5t-129 61.5t-93 105.5t-35.5 154.5zM190 1309l392 243l387 -243l-115 -191l-285 144l-276 -144zM420 324q0 -43 30.5 -70t77.5 -27t82 22.5t49 45.5v78q-2 4 -9 13t-21.5 19.5t-36 18.5t-53.5 8 q-61 0 -90 -30.5t-29 -77.5z" />
<glyph unicode="&#xe3;" horiz-adv-x="1228" d="M31 303q0 86 33.5 155.5t92 119t136.5 76t164 26.5q45 0 80.5 -9t61.5 -21.5t41 -25t19 -16.5v72q0 70 -55 92.5t-139 22.5q-92 0 -169 -31t-136 -64l-86 238q31 18 78 43t105 48.5t125 38.5t138 15q92 0 190.5 -19.5t179.5 -67.5t133 -130t52 -204v-400h123v-262h-438 l-49 92q-29 -39 -65 -64.5t-73.5 -40t-74.5 -20.5t-64 -6q-74 0 -145.5 20.5t-129 61.5t-93 105.5t-35.5 154.5zM211 1343q47 59 104.5 90t135.5 31q49 0 81.5 -11t62.5 -24.5t60.5 -24.5t73.5 -11q45 0 87 18.5t63 40.5l92 -215q-45 -55 -104.5 -84t-147.5 -29 q-47 0 -79 12.5t-60.5 26t-59.5 25.5t-76 12q-82 0 -143 -61zM420 324q0 -43 30.5 -70t77.5 -27t82 22.5t49 45.5v78q-2 4 -9 13t-21.5 19.5t-36 18.5t-53.5 8q-61 0 -90 -30.5t-29 -77.5z" />
<glyph unicode="&#xe4;" horiz-adv-x="1228" d="M31 303q0 86 33.5 155.5t92 119t136.5 76t164 26.5q45 0 80.5 -9t61.5 -21.5t41 -25t19 -16.5v72q0 70 -55 92.5t-139 22.5q-92 0 -169 -31t-136 -64l-86 238q31 18 78 43t105 48.5t125 38.5t138 15q92 0 190.5 -19.5t179.5 -67.5t133 -130t52 -204v-400h123v-262h-438 l-49 92q-29 -39 -65 -64.5t-73.5 -40t-74.5 -20.5t-64 -6q-74 0 -145.5 20.5t-129 61.5t-93 105.5t-35.5 154.5zM109 1323q0 35 14 72t42 67.5t69.5 50t95.5 19.5q53 0 95 -19.5t70.5 -50t44 -67.5t15.5 -72q0 -86 -57.5 -146.5t-167.5 -60.5q-49 0 -89 18.5t-70 48 t-46 66.5t-16 74zM420 324q0 -43 30.5 -70t77.5 -27t82 22.5t49 45.5v78q-2 4 -9 13t-21.5 19.5t-36 18.5t-53.5 8q-61 0 -90 -30.5t-29 -77.5zM672 1323q0 35 14 72t42 67.5t70 50t95 19.5t95 -19.5t70.5 -50t44 -67.5t15.5 -72q0 -86 -57 -146.5t-168 -60.5 q-49 0 -89 18.5t-69.5 48t-46 66.5t-16.5 74z" />
<glyph unicode="&#xe5;" horiz-adv-x="1228" d="M31 303q0 86 33.5 155.5t92 119t136.5 76t164 26.5q45 0 80.5 -9t61.5 -21.5t41 -25t19 -16.5v72q0 70 -55 92.5t-139 22.5q-92 0 -169 -31t-136 -64l-86 238q31 18 78 43t105 48.5t125 38.5t138 15q92 0 190.5 -19.5t179.5 -67.5t133 -130t52 -204v-400h123v-262h-438 l-49 92q-29 -39 -65 -64.5t-73.5 -40t-74.5 -20.5t-64 -6q-74 0 -145.5 20.5t-129 61.5t-93 105.5t-35.5 154.5zM330 1329q0 45 19.5 84t53 68.5t76.5 47t92 17.5t91.5 -17.5t75 -47t51 -68.5t18.5 -84t-19.5 -84t-52.5 -68.5t-76 -47t-88 -17.5q-51 0 -95 17.5t-76.5 47 t-51 68.5t-18.5 84zM420 324q0 -43 30.5 -70t77.5 -27t82 22.5t49 45.5v78q-2 4 -9 13t-21.5 19.5t-36 18.5t-53.5 8q-61 0 -90 -30.5t-29 -77.5zM483 1329q0 -37 24.5 -61.5t59.5 -24.5q39 0 62.5 24.5t23.5 61.5t-24.5 61.5t-55.5 24.5q-41 0 -65.5 -24.5t-24.5 -61.5z " />
<glyph unicode="&#xe6;" horiz-adv-x="1853" d="M31 303q0 86 33.5 155.5t92 119t136.5 76t164 26.5q45 0 80.5 -9t61.5 -21.5t41 -25t19 -16.5v72q0 70 -55 92.5t-139 22.5q-92 0 -169 -31t-136 -64l-86 238q31 18 78 43t105 48.5t125 38.5t138 15q104 0 212 -24.5t194 -85.5q66 39 143.5 59.5t165.5 20.5 q127 0 224 -37t163 -102.5t98.5 -154.5t32.5 -194q0 -41 -6 -81t-18 -74h-646q4 -20 13.5 -49t32 -55.5t61.5 -45t104 -18.5q27 0 58.5 2t68.5 12t78 29.5t82 54.5l172 -199q-115 -98 -242 -138t-286 -40q-115 0 -227.5 44t-192.5 140q-29 -39 -71 -72.5t-90 -59t-102.5 -40 t-107.5 -14.5q-74 0 -145.5 20.5t-129 61.5t-93 105.5t-35.5 154.5zM420 324q0 -43 30.5 -70t77.5 -27t82 22.5t49 45.5v78q-2 4 -9 13t-21.5 19.5t-36 18.5t-53.5 8q-61 0 -90 -30.5t-29 -77.5zM1090 612h309q0 29 -6.5 58.5t-21.5 53.5t-45 38t-79 14q-47 0 -76.5 -18.5 t-47 -44t-24.5 -54t-9 -47.5z" />
<glyph unicode="&#xe7;" horiz-adv-x="1087" d="M2 518q0 135 42 234.5t111.5 164t161 95t189.5 30.5q51 0 93 -12t74 -30.5t54.5 -39t34.5 -34.5l35 98h241v-463h-301q-2 37 -9 75t-21.5 69.5t-39 51t-59.5 19.5q-45 0 -78.5 -22.5t-56 -59.5t-34 -84t-11.5 -96q0 -104 57.5 -173t159.5 -69q78 0 135.5 32t106.5 85 l180 -209q-66 -72 -179.5 -132t-258.5 -73l-29 -63q74 -6 116 -48.5t42 -101.5q0 -37 -13.5 -74.5t-42 -67.5t-75.5 -48t-117 -18q-47 0 -97.5 12t-82.5 28l65 127q49 -23 99 -22q68 0 67 49q0 49 -67 49q-18 0 -33 -1t-25 -3l-20 35l47 152q-96 12 -180 53t-146.5 108.5 t-98.5 161.5t-36 215z" />
<glyph unicode="&#xe8;" horiz-adv-x="1110" d="M10 518q0 125 43 224.5t117 169t174 105.5t217 36q127 0 224.5 -37t163 -102.5t98 -154.5t32.5 -194q0 -41 -6 -81t-18 -74h-645q4 -20 13 -49t31.5 -55.5t61.5 -45t105 -18.5q27 0 58.5 2t68 12t77.5 29.5t82 54.5l172 -199q-115 -98 -241.5 -138t-286.5 -40 q-96 0 -192.5 32t-173 98.5t-126 172t-49.5 252.5zM147 1436h406l160 -291h-256zM416 612h309q0 29 -6 58.5t-21.5 53.5t-45.5 38t-79 14q-47 0 -76.5 -18.5t-47 -44t-24.5 -54t-9 -47.5z" />
<glyph unicode="&#xe9;" horiz-adv-x="1110" d="M10 518q0 125 43 224.5t117 169t174 105.5t217 36q127 0 224.5 -37t163 -102.5t98 -154.5t32.5 -194q0 -41 -6 -81t-18 -74h-645q4 -20 13 -49t31.5 -55.5t61.5 -45t105 -18.5q27 0 58.5 2t68 12t77.5 29.5t82 54.5l172 -199q-115 -98 -241.5 -138t-286.5 -40 q-96 0 -192.5 32t-173 98.5t-126 172t-49.5 252.5zM365 1145l159 291h406l-309 -291h-256zM416 612h309q0 29 -6 58.5t-21.5 53.5t-45.5 38t-79 14q-47 0 -76.5 -18.5t-47 -44t-24.5 -54t-9 -47.5z" />
<glyph unicode="&#xea;" horiz-adv-x="1110" d="M10 518q0 125 43 224.5t117 169t174 105.5t217 36q127 0 224.5 -37t163 -102.5t98 -154.5t32.5 -194q0 -41 -6 -81t-18 -74h-645q4 -20 13 -49t31.5 -55.5t61.5 -45t105 -18.5q27 0 58.5 2t68 12t77.5 29.5t82 54.5l172 -199q-115 -98 -241.5 -138t-286.5 -40 q-96 0 -192.5 32t-173 98.5t-126 172t-49.5 252.5zM188 1300l392 244l387 -244l-115 -190l-285 143l-276 -143zM416 612h309q0 29 -6 58.5t-21.5 53.5t-45.5 38t-79 14q-47 0 -76.5 -18.5t-47 -44t-24.5 -54t-9 -47.5z" />
<glyph unicode="&#xeb;" horiz-adv-x="1110" d="M10 518q0 125 43 224.5t117 169t174 105.5t217 36q127 0 224.5 -37t163 -102.5t98 -154.5t32.5 -194q0 -41 -6 -81t-18 -74h-645q4 -20 13 -49t31.5 -55.5t61.5 -45t105 -18.5q27 0 58.5 2t68 12t77.5 29.5t82 54.5l172 -199q-115 -98 -241.5 -138t-286.5 -40 q-96 0 -192.5 32t-173 98.5t-126 172t-49.5 252.5zM51 1323q0 35 14.5 72t42 67.5t69.5 50t95 19.5t95.5 -19.5t71 -50t44 -67.5t15.5 -72q0 -86 -57.5 -146.5t-168.5 -60.5q-49 0 -89 18.5t-69.5 48t-46 66.5t-16.5 74zM416 612h309q0 29 -6 58.5t-21.5 53.5t-45.5 38 t-79 14q-47 0 -76.5 -18.5t-47 -44t-24.5 -54t-9 -47.5zM614 1323q0 35 14.5 72t42 67.5t69.5 50t96 19.5q53 0 95 -19.5t70.5 -50t44 -67.5t15.5 -72q0 -86 -57.5 -146.5t-167.5 -60.5q-49 0 -89 18.5t-70 48t-46.5 66.5t-16.5 74z" />
<glyph unicode="&#xec;" horiz-adv-x="675" d="M51 0v268h86v490h-86v266h475v-756h99v-268h-574zM55 1436h406l164 -291h-260z" />
<glyph unicode="&#xed;" horiz-adv-x="675" d="M51 0v268h86v490h-86v266h475v-756h99v-268h-574zM55 1145l160 291h406l-310 -291h-256z" />
<glyph unicode="&#xee;" horiz-adv-x="675" d="M-104 1309l391 243l387 -243l-115 -191l-285 144l-276 -144zM51 0v268h86v490h-86v266h475v-756h99v-268h-574z" />
<glyph unicode="&#xef;" horiz-adv-x="675" d="M-166 1323q0 35 14.5 72t42 67.5t69.5 50t95 19.5t95.5 -19.5t71 -50t44 -67.5t15.5 -72q0 -86 -57.5 -146.5t-168.5 -60.5q-49 0 -89 18.5t-69.5 48t-46 66.5t-16.5 74zM51 0v268h86v490h-86v266h475v-756h99v-268h-574zM397 1323q0 35 14.5 72t42 67.5t69.5 50t95 19.5 t95.5 -19.5t71 -50t44 -67.5t15.5 -72q0 -86 -57.5 -146.5t-168.5 -60.5q-49 0 -89 18.5t-69.5 48t-46 66.5t-16.5 74z" />
<glyph unicode="&#xf0;" horiz-adv-x="1169" d="M23 516q0 127 48 226.5t125.5 167t179 103.5t206.5 36l-82 77h-346v174h165l-139 136h406l102 -136h307v-174h-172l189 -245q66 -76 103.5 -164t37.5 -217q0 -127 -44 -224.5t-120 -165t-177 -102.5t-218 -35q-111 0 -214.5 34t-183 101.5t-126.5 170t-47 237.5zM442 514 q0 -127 43 -202.5t109 -75.5q33 0 58.5 20t44 57t27.5 87.5t9 107.5t-10 107.5t-28.5 87t-46 58t-64.5 21.5q-31 0 -56.5 -20.5t-44 -57t-30 -86t-11.5 -104.5z" />
<glyph unicode="&#xf1;" horiz-adv-x="1325" d="M51 0v268h86v490h-86v266h436l48 -127q53 72 123.5 118t168.5 46q119 0 192 -40t112.5 -104.5t53 -145.5t13.5 -161v-342h96v-268h-516v559q0 27 -1 59.5t-11 61.5t-33.5 49.5t-68.5 20.5q-39 0 -65 -17.5t-40 -45.5t-19 -61.5t-5 -66.5v-291h147v-268h-631zM244 1348 q47 59 104.5 89.5t134.5 30.5q49 0 82 -11t62.5 -24.5t60.5 -24.5t74 -11q45 0 87 18.5t62 40.5l93 -215q-45 -55 -104.5 -84t-147.5 -29q-47 0 -79 12.5t-60.5 26t-59.5 25.5t-76 12q-82 0 -143 -61z" />
<glyph unicode="&#xf2;" d="M23 516q0 129 48 228.5t126.5 167t180 102.5t206.5 35q121 0 225 -38t181 -109t120 -172t43 -230q0 -127 -44 -224.5t-120 -165t-177 -102.5t-218 -35q-111 0 -214.5 34t-183 101.5t-126.5 170t-47 237.5zM180 1436h406l159 -291h-256zM442 514q0 -127 43 -202.5 t109 -75.5q33 0 58.5 20t44 57t27.5 87.5t9 107.5t-10 107.5t-28.5 87t-46 58t-64.5 21.5q-31 0 -56.5 -20.5t-44 -57t-30 -86t-11.5 -104.5z" />
<glyph unicode="&#xf3;" d="M23 516q0 129 48 228.5t126.5 167t180 102.5t206.5 35q121 0 225 -38t181 -109t120 -172t43 -230q0 -127 -44 -224.5t-120 -165t-177 -102.5t-218 -35q-111 0 -214.5 34t-183 101.5t-126.5 170t-47 237.5zM397 1145l160 291h406l-310 -291h-256zM442 514 q0 -127 43 -202.5t109 -75.5q33 0 58.5 20t44 57t27.5 87.5t9 107.5t-10 107.5t-28.5 87t-46 58t-64.5 21.5q-31 0 -56.5 -20.5t-44 -57t-30 -86t-11.5 -104.5z" />
<glyph unicode="&#xf4;" d="M23 516q0 129 48 228.5t126.5 167t180 102.5t206.5 35q121 0 225 -38t181 -109t120 -172t43 -230q0 -127 -44 -224.5t-120 -165t-177 -102.5t-218 -35q-111 0 -214.5 34t-183 101.5t-126.5 170t-47 237.5zM164 1309l391 243l387 -243l-115 -191l-284 144l-277 -144z M442 514q0 -127 43 -202.5t109 -75.5q33 0 58.5 20t44 57t27.5 87.5t9 107.5t-10 107.5t-28.5 87t-46 58t-64.5 21.5q-31 0 -56.5 -20.5t-44 -57t-30 -86t-11.5 -104.5z" />
<glyph unicode="&#xf5;" d="M23 516q0 129 48 228.5t126.5 167t180 102.5t206.5 35q121 0 225 -38t181 -109t120 -172t43 -230q0 -127 -44 -224.5t-120 -165t-177 -102.5t-218 -35q-111 0 -214.5 34t-183 101.5t-126.5 170t-47 237.5zM207 1348q47 59 104.5 89.5t134.5 30.5q49 0 82 -11t63 -24.5 t60.5 -24.5t73.5 -11q45 0 87 18.5t62 40.5l93 -215q-45 -55 -104.5 -84t-147.5 -29q-47 0 -79 12.5t-60.5 26t-59.5 25.5t-76 12q-82 0 -143 -61zM442 514q0 -127 43 -202.5t109 -75.5q33 0 58.5 20t44 57t27.5 87.5t9 107.5t-10 107.5t-28.5 87t-46 58t-64.5 21.5 q-31 0 -56.5 -20.5t-44 -57t-30 -86t-11.5 -104.5z" />
<glyph unicode="&#xf6;" d="M23 516q0 129 48 228.5t126.5 167t180 102.5t206.5 35q121 0 225 -38t181 -109t120 -172t43 -230q0 -127 -44 -224.5t-120 -165t-177 -102.5t-218 -35q-111 0 -214.5 34t-183 101.5t-126.5 170t-47 237.5zM84 1323q0 35 14.5 72t42 67.5t69.5 50t95 19.5t95 -19.5t71 -50 t44 -67.5t15 -72q0 -86 -57 -146.5t-168 -60.5q-49 0 -89 18.5t-69.5 48t-46 66.5t-16.5 74zM442 514q0 -127 43 -202.5t109 -75.5q33 0 58.5 20t44 57t27.5 87.5t9 107.5t-10 107.5t-28.5 87t-46 58t-64.5 21.5q-31 0 -56.5 -20.5t-44 -57t-30 -86t-11.5 -104.5zM647 1323 q0 35 14.5 72t42 67.5t69.5 50t95 19.5t95.5 -19.5t71 -50t44 -67.5t15.5 -72q0 -86 -57.5 -146.5t-168.5 -60.5q-49 0 -89 18.5t-69.5 48t-46 66.5t-16.5 74z" />
<glyph unicode="&#xf7;" horiz-adv-x="1073" d="M119 500v272h844v-272h-844zM317 201q0 39 14.5 78.5t44.5 73.5t71.5 55.5t97.5 21.5q55 0 98 -21.5t72.5 -55.5t45 -73.5t15.5 -78.5q0 -45 -16.5 -85t-47 -69t-73.5 -46t-94 -17q-49 0 -91 18t-73 49t-47.5 70t-16.5 80zM317 1063q0 39 14.5 79t44.5 73.5t71.5 55 t97.5 21.5q55 0 98 -21.5t72.5 -55t45 -73.5t15.5 -79q0 -92 -60.5 -154.5t-170.5 -62.5q-47 0 -89 18.5t-73 49t-48.5 69.5t-17.5 80z" />
<glyph unicode="&#xf8;" d="M23 516q0 129 48 228.5t126.5 167t180 102.5t206.5 35q72 0 137 -15.5t125 -38.5l24 31h242l-108 -137q70 -70 109.5 -168t39.5 -221q0 -127 -44 -224.5t-120 -165t-177 -102.5t-218 -35q-139 0 -264 54l-21 -27h-241l102 131q-72 68 -109.5 163t-37.5 222zM442 479 l213 273q-16 12 -34.5 21t-36.5 9q-31 0 -56.5 -20.5t-44 -57t-30 -86t-11.5 -104.5v-35zM518 266q33 -30 76 -30q33 0 58.5 20t44 57t27.5 87.5t9 107.5v15t-2 18z" />
<glyph unicode="&#xf9;" horiz-adv-x="1292" d="M31 754v270h495v-494q0 -133 23.5 -195.5t87.5 -62.5q53 0 91 43t38 113v326h-135v270h530v-752h101v-272h-388l-55 129q-16 -18 -39.5 -46t-57.5 -52.5t-81 -42t-113 -17.5q-117 0 -195.5 31t-126.5 92.5t-68.5 155.5t-20.5 221v283h-86zM238 1436h405l160 -291h-256z " />
<glyph unicode="&#xfa;" horiz-adv-x="1292" d="M31 754v270h495v-494q0 -133 23.5 -195.5t87.5 -62.5q53 0 91 43t38 113v326h-135v270h530v-752h101v-272h-388l-55 129q-16 -18 -39.5 -46t-57.5 -52.5t-81 -42t-113 -17.5q-117 0 -195.5 31t-126.5 92.5t-68.5 155.5t-20.5 221v283h-86zM455 1145l159 291h406 l-309 -291h-256z" />
<glyph unicode="&#xfb;" horiz-adv-x="1292" d="M31 754v270h495v-494q0 -133 23.5 -195.5t87.5 -62.5q53 0 91 43t38 113v326h-135v270h530v-752h101v-272h-388l-55 129q-16 -18 -39.5 -46t-57.5 -52.5t-81 -42t-113 -17.5q-117 0 -195.5 31t-126.5 92.5t-68.5 155.5t-20.5 221v283h-86zM223 1309l391 243l387 -243 l-114 -191l-285 144l-276 -144z" />
<glyph unicode="&#xfc;" horiz-adv-x="1292" d="M31 754v270h495v-494q0 -133 23.5 -195.5t87.5 -62.5q53 0 91 43t38 113v326h-135v270h530v-752h101v-272h-388l-55 129q-16 -18 -39.5 -46t-57.5 -52.5t-81 -42t-113 -17.5q-117 0 -195.5 31t-126.5 92.5t-68.5 155.5t-20.5 221v283h-86zM141 1323q0 35 14.5 72t42 67.5 t69.5 50t95 19.5t95.5 -19.5t71 -50t44 -67.5t15.5 -72q0 -86 -57.5 -146.5t-168.5 -60.5q-49 0 -89 18.5t-69.5 48t-46 66.5t-16.5 74zM705 1323q0 35 14 72t41.5 67.5t69.5 50t96 19.5q53 0 95 -19.5t70.5 -50t44 -67.5t15.5 -72q0 -86 -57.5 -146.5t-167.5 -60.5 q-49 0 -89 18.5t-70 48t-46 66.5t-16 74z" />
<glyph unicode="&#xfd;" horiz-adv-x="1187" d="M-18 762v262h630v-260h-96l133 -320l133 320h-94v260h520v-254h-98l-389 -946q-23 -49 -52.5 -100.5t-78.5 -93.5t-124 -68.5t-185 -26.5q-80 4 -140.5 33t-107.5 70l153 241q29 -27 65 -49.5t71 -22.5q41 0 70.5 35t43.5 76l29 86l-399 758h-84zM403 1145l160 291h406 l-320 -291h-246z" />
<glyph unicode="&#xfe;" horiz-adv-x="1306" d="M51 -150h86v1422h-84v264h475v-604l27 20q14 10 36.5 25.5t54.5 29t71 23.5t86 10q119 0 210 -43t151.5 -116.5t91 -171t30.5 -205.5q0 -123 -36 -220.5t-98 -165t-148 -104.5t-185 -37q-63 0 -111.5 10.5t-80 25t-50 27.5t-24.5 17v-207h111v-268h-613v268zM553 514 q0 -57 10 -106.5t29.5 -86t47.5 -57t60 -20.5q66 0 106 69.5t40 186.5q0 45 -10.5 91t-30 81t-47 57.5t-60.5 22.5q-57 0 -101 -63.5t-44 -174.5z" />
<glyph unicode="&#xff;" horiz-adv-x="1187" d="M-18 762v262h630v-260h-96l133 -320l133 320h-94v260h520v-254h-98l-389 -946q-23 -49 -52.5 -100.5t-78.5 -93.5t-124 -68.5t-185 -26.5q-80 4 -140.5 33t-107.5 70l153 241q29 -27 65 -49.5t71 -22.5q41 0 70.5 35t43.5 76l29 86l-399 758h-84zM90 1323q0 35 14.5 72 t42 67.5t69.5 50t95 19.5t95.5 -19.5t71 -50t44 -67.5t15.5 -72q0 -86 -57.5 -146.5t-168.5 -60.5q-49 0 -89 18.5t-69.5 48t-46 66.5t-16.5 74zM653 1323q0 35 14.5 72t42 67.5t69.5 50t95 19.5t95.5 -19.5t71 -50t44 -67.5t15.5 -72q0 -86 -57.5 -146.5t-168.5 -60.5 q-49 0 -89 18.5t-69.5 48t-46 66.5t-16.5 74z" />
<glyph unicode="&#x152;" horiz-adv-x="2002" d="M59 727q2 162 60.5 292t161 222t244 142.5t311.5 50.5h1116v-455h-355v182h-327v-282h389v-273h-389v-334h327v191h355v-463h-1004q-61 -6 -123 -6q-172 0 -313 45t-241.5 137t-156 229.5t-55.5 321.5zM543 717q0 -94 25.5 -170t67.5 -130.5t93 -83t102 -28.5h15v836 q-12 6 -21 6q-51 0 -101 -32t-90 -89t-65.5 -136t-25.5 -173z" />
<glyph unicode="&#x153;" horiz-adv-x="1843" d="M23 516q0 129 48 228.5t126.5 167t180 102.5t206.5 35q104 0 193 -29t161 -78q72 53 161 82t193 29q127 0 224.5 -37t163 -102.5t98 -154.5t32.5 -194q0 -41 -6 -81t-18 -74h-639q-2 -4 -2 -8.5t-2 -8.5q6 -23 16 -48.5t34 -49t61.5 -38.5t97.5 -15q27 0 58.5 2t68.5 12 t77.5 29.5t81.5 54.5l172 -199q-115 -98 -241.5 -138t-286.5 -40q-88 0 -177 26.5t-165 82.5q-72 -49 -160 -74t-186 -25q-111 0 -214.5 34t-183 101.5t-126.5 170t-47 237.5zM442 514q0 -127 43 -202.5t109 -75.5q33 0 58.5 20t44 57t27.5 87.5t9 107.5t-10 107.5t-28.5 87 t-46 58t-64.5 21.5q-31 0 -56.5 -20.5t-44 -57t-30 -86t-11.5 -104.5zM1147 612h309q0 29 -6 58.5t-21.5 53.5t-45 38t-78.5 14q-47 0 -77 -18.5t-47.5 -44t-24.5 -54t-9 -47.5z" />
<glyph unicode="&#x178;" horiz-adv-x="1370" d="M-20 1169v263h700v-263h-107l119 -217q4 -14 13.5 -36.5t19.5 -47t18.5 -47t12.5 -35.5h8q2 14 11 37t20.5 47.5t23.5 49t21 43.5l112 206h-112v263h551v-263h-111l-379 -665v-238h115v-266h-656v266h117v242l-397 661h-100zM180 1731q0 35 14.5 71.5t42 67.5t69.5 50 t95 19t95.5 -19t71 -50t44 -68t15.5 -71q0 -86 -57.5 -146.5t-168.5 -60.5q-49 0 -89 18.5t-69.5 48t-46 66.5t-16.5 74zM743 1731q0 35 14.5 71.5t42 67.5t69.5 50t96 19q53 0 95 -19t70.5 -50t44 -68t15.5 -71q0 -86 -57.5 -146.5t-167.5 -60.5q-49 0 -89 18.5t-70 48 t-46.5 66.5t-16.5 74z" />
<glyph unicode="&#x2c6;" horiz-adv-x="823" d="M-393 1309l391 243l387 -243l-115 -191l-284 144l-277 -144z" />
<glyph unicode="&#x2dc;" horiz-adv-x="823" d="M35 1348q47 59 104.5 89.5t134.5 30.5q49 0 82 -11t63 -24.5t60.5 -24.5t73.5 -11q45 0 87 18.5t62 40.5l93 -215q-45 -55 -104.5 -84t-147.5 -29q-47 0 -79 12.5t-60.5 26t-59.5 25.5t-76 12q-82 0 -143 -61z" />
<glyph unicode="&#x2000;" horiz-adv-x="980" />
<glyph unicode="&#x2001;" horiz-adv-x="1960" />
<glyph unicode="&#x2002;" horiz-adv-x="980" />
<glyph unicode="&#x2003;" horiz-adv-x="1960" />
<glyph unicode="&#x2004;" horiz-adv-x="653" />
<glyph unicode="&#x2005;" horiz-adv-x="490" />
<glyph unicode="&#x2006;" horiz-adv-x="326" />
<glyph unicode="&#x2007;" horiz-adv-x="326" />
<glyph unicode="&#x2008;" horiz-adv-x="245" />
<glyph unicode="&#x2009;" horiz-adv-x="392" />
<glyph unicode="&#x200a;" horiz-adv-x="108" />
<glyph unicode="&#x2010;" horiz-adv-x="790" d="M96 352v273h594v-273h-594z" />
<glyph unicode="&#x2011;" horiz-adv-x="790" d="M96 352v273h594v-273h-594z" />
<glyph unicode="&#x2012;" horiz-adv-x="790" d="M96 352v273h594v-273h-594z" />
<glyph unicode="&#x2013;" horiz-adv-x="915" d="M66 352v273h772v-273h-772z" />
<glyph unicode="&#x2014;" horiz-adv-x="1292" d="M86 352v273h1104v-273h-1104z" />
<glyph unicode="&#x2018;" horiz-adv-x="604" d="M35 844v22q0 193 89 368t243 310l235 -133q-49 -61 -86 -121.5t-61.5 -128t-38 -145.5t-13.5 -170q0 -23 1.5 -48.5t3.5 -52.5z" />
<glyph unicode="&#x2019;" horiz-adv-x="653" d="M33 879q49 61 86 121.5t61.5 128t37.5 144.5t13 169q0 25 -1 50.5t-3 51.5l373 -98v-25q0 -193 -89 -366.5t-243 -309.5z" />
<glyph unicode="&#x201a;" horiz-adv-x="557" d="M-12 -264q49 61 86 121.5t61.5 128t37.5 144.5t13 169q0 25 -1 50.5t-3 51.5l373 -98v-24q0 -193 -89 -367t-243 -309z" />
<glyph unicode="&#x201c;" horiz-adv-x="1150" d="M35 844v22q0 193 89 368t243 310l235 -133q-49 -61 -86 -121.5t-61.5 -128t-38 -145.5t-13.5 -170q0 -23 1.5 -48.5t3.5 -52.5zM526 844v22q0 193 89.5 368t242.5 310l236 -133q-49 -61 -86 -121.5t-61.5 -128t-38 -145.5t-13.5 -170q0 -23 1 -48.5t3 -52.5z" />
<glyph unicode="&#x201d;" horiz-adv-x="1150" d="M33 879q49 61 86 121.5t61.5 128t37.5 144.5t13 169q0 25 -1 50.5t-3 51.5l373 -98v-25q0 -193 -89 -366.5t-243 -309.5zM524 879q49 61 86 121.5t61.5 128t38 144.5t13.5 169q0 25 -1 50.5t-3 51.5l373 -98v-25q0 -193 -89.5 -366.5t-242.5 -309.5z" />
<glyph unicode="&#x201e;" horiz-adv-x="1062" d="M-12 -264q49 61 86 121.5t61.5 128t37.5 144.5t13 169q0 25 -1 50.5t-3 51.5l373 -98v-24q0 -193 -89 -367t-243 -309zM479 -264q49 61 86 121.5t61.5 128t38 144.5t13.5 169q0 25 -1 50.5t-3 51.5l373 -98v-24q0 -193 -89.5 -367t-242.5 -309z" />
<glyph unicode="&#x2022;" horiz-adv-x="712" d="M123 659q0 39 15.5 81t44 76t72.5 55.5t99 21.5t99.5 -21.5t75 -55.5t46 -76t15.5 -81q0 -92 -59.5 -156.5t-176.5 -64.5q-51 0 -93 19.5t-72.5 50.5t-48 70.5t-17.5 80.5z" />
<glyph unicode="&#x2026;" horiz-adv-x="1585" d="M31 213q0 39 15 81t44 75.5t73 55t99 21.5t99.5 -21.5t75 -55t46 -75.5t15.5 -81q0 -92 -59.5 -156.5t-176.5 -64.5q-51 0 -93 19.5t-72.5 50t-48 70.5t-17.5 81zM559 213q0 39 15.5 81t44 75.5t72.5 55t100 21.5q55 0 99 -21.5t74.5 -55t46 -75.5t15.5 -81 q0 -92 -59.5 -156.5t-175.5 -64.5q-51 0 -93.5 19.5t-73 50t-48 70.5t-17.5 81zM1087 213q0 39 15.5 81t44.5 75.5t73 55t99 21.5t99 -21.5t75 -55t46 -75.5t15 -81q0 -92 -59 -156.5t-176 -64.5q-51 0 -93 19.5t-73 50t-48.5 70.5t-17.5 81z" />
<glyph unicode="&#x202f;" horiz-adv-x="392" />
<glyph unicode="&#x2039;" horiz-adv-x="698" d="M41 526l365 490l258 -162l-248 -328l248 -325l-258 -166z" />
<glyph unicode="&#x203a;" horiz-adv-x="698" d="M41 201l248 325l-248 328l258 162l365 -490l-365 -491z" />
<glyph unicode="&#x205f;" horiz-adv-x="490" />
<glyph unicode="&#x20ac;" horiz-adv-x="1562" d="M76 502v172h112v28v43.5t5 42.5h-117v173h151q37 117 102.5 209t145.5 155.5t168 97t168 33.5q76 0 132 -18.5t95 -42t60.5 -47t27.5 -31.5l48 115h321v-582h-367q-2 49 -16 96t-39.5 83t-65.5 57.5t-96 21.5q-63 0 -111 -40t-81 -107h192v-173h-239q-2 -23 -3 -43 t-1 -43v-28h243v-172h-204q35 -82 99 -133.5t161 -51.5q63 0 120.5 29t100.5 64.5t70.5 67.5t33.5 40l240 -262q-53 -57 -118.5 -109.5t-143.5 -92.5t-168 -63.5t-191 -23.5q-137 0 -253.5 36t-208 104.5t-152.5 168t-88 226.5h-133z" />
<glyph unicode="&#x2122;" horiz-adv-x="1783" d="M31 1165v267h690v-267h-152v131h-86v-446h84v-137h-381v137h84v446h-88v-131h-151zM762 713v133h55v452h-55v134h389l104 -385l99 385h391v-134h-55v-452h55v-133h-324v133h60v405h-6q-6 -35 -16.5 -78t-14.5 -61l-107 -399h-215l-114 409q-4 14 -11.5 52t-11.5 77h-4 v-405h59v-133h-278z" />
<glyph unicode="&#x25fc;" horiz-adv-x="1024" d="M0 0v1024h1024v-1024h-1024z" />
<glyph unicode="&#xfb01;" horiz-adv-x="1396" d="M51 758v266h84v174q0 43 11.5 107.5t53.5 124t121.5 101.5t219.5 42q39 0 84 -4t86 -11.5t75.5 -16.5t55.5 -19l-123 -236q-16 8 -44 14.5t-69 6.5q-66 0 -65 -109v-174h710v-756h99v-268h-574v268h86v490h-321v-490h123v-268h-611v268h82v490h-84zM834 1323q0 35 14 72 t42 67.5t69.5 50t95.5 19.5q53 0 95 -19.5t70.5 -50t44 -67.5t15.5 -72q0 -86 -57.5 -146.5t-167.5 -60.5q-49 0 -89 18.5t-70 48t-46 66.5t-16 74z" />
<glyph unicode="&#xfb02;" horiz-adv-x="1394" d="M51 758v266h84v174q0 43 11.5 107.5t53.5 124t121.5 101.5t219.5 42q66 0 139.5 -10.5t124.5 -26.5h428v-1268h121v-268h-598v268h88v971l-125 47q-16 8 -44 14.5t-69 6.5q-66 0 -65 -109v-174h186v-266h-186v-490h123v-268h-611v268h82v490h-84z" />
<glyph unicode="&#xfb03;" horiz-adv-x="2078" d="M51 758v266h84v174q0 43 11.5 107.5t53.5 124t121.5 101.5t219.5 42q39 0 84 -4t86 -11.5t75.5 -16.5t55.5 -19l-123 -236q-16 8 -44 14.5t-69 6.5q-66 0 -65 -109v-174h295v174q0 43 11 107.5t53 124t122 101.5t219 42q39 0 84 -4t86 -11.5t76 -16.5t55 -19l-123 -236 q-16 8 -43.5 14.5t-68.5 6.5q-66 0 -66 -109v-174h682v-756h98v-268h-573v268h86v490h-293v-490h123v-268h-610v268h82v490h-295v-490h123v-268h-611v268h82v490h-84zM1505 1323q0 35 14.5 72t42 67.5t69.5 50t95 19.5t95.5 -19.5t71 -50t44 -67.5t15.5 -72 q0 -86 -57.5 -146.5t-168.5 -60.5q-49 0 -89 18.5t-69.5 48t-46 66.5t-16.5 74z" />
<glyph unicode="&#xfb04;" horiz-adv-x="2109" d="M51 758v266h84v174q0 43 11.5 107.5t53.5 124t121.5 101.5t219.5 42q39 0 84 -4t86 -11.5t75.5 -16.5t55.5 -19l-123 -236q-16 8 -44 14.5t-69 6.5q-66 0 -65 -109v-174h288v174q0 43 11.5 107.5t53.5 124t122 101.5t219 42q66 0 139.5 -10.5t124.5 -26.5h426v-1268h121 v-268h-598v268h88v955l-123 63q-16 8 -44 14.5t-69 6.5q-66 0 -65 -109v-174h186v-266h-186v-490h123v-268h-610v268h81v490h-288v-490h123v-268h-611v268h82v490h-84z" />
</font>
</defs>
</svg>
